<?xml version="1.0" standalone="no"?>
<!DOCTYPE svg PUBLIC "-//W3C//DTD SVG 1.1//EN" "http://www.w3.org/Graphics/SVG/1.1/DTD/svg11.dtd" >
<svg xmlns="http://www.w3.org/2000/svg">
<metadata>Generated by IcoMoon</metadata>
<defs>
<font id="icomoon" horiz-adv-x="1024">
<font-face units-per-em="1024" ascent="960" descent="-64" />
<missing-glyph horiz-adv-x="1024" />
<glyph unicode="&#x20;" horiz-adv-x="512" d="" />
<glyph unicode="&#xe026;" glyph-name="untitled" d="M128 725.334h768q17.668 0 30.168-12.5t12.5-30.166-12.5-30.168-30.168-12.5h-768q-17.668 0-30.168 12.5t-12.5 30.168 12.5 30.166 30.168 12.5zM128 213.334h768q17.668 0 30.168-12.5t12.5-30.168-12.5-30.168-30.168-12.5h-768q-17.668 0-30.168 12.5t-12.5 30.168 12.5 30.168 30.168 12.5zM128 384h768q17.668 0 30.168-12.5t12.5-30.168-12.5-30.168-30.168-12.5h-768q-17.668 0-30.168 12.5t-12.5 30.168 12.5 30.168 30.168 12.5zM128 554.666h768q17.668 0 30.168-12.5t12.5-30.168-12.5-30.168-30.168-12.5h-768q-17.668 0-30.168 12.5t-12.5 30.168 12.5 30.168 30.168 12.5z" />
<glyph unicode="&#xe036;" glyph-name="untitled2" d="M426.666 896q78 0 149.166-30.5t122.5-81.832 81.832-122.5 30.5-149.168q0-67-21.832-128.334t-62.168-111.332l242.332-242q12.332-12.332 12.332-30.332 0-18.332-12.168-30.5t-30.5-12.168q-18 0-30.332 12.332l-242 242.332q-50-40.332-111.332-62.168t-128.332-21.832q-78 0-149.168 30.5t-122.5 81.832-81.832 122.5-30.5 149.168 30.5 149.168 81.832 122.5 122.5 81.832 149.168 30.5zM426.666 810.666q-60.666 0-116-23.668t-95.332-63.666-63.668-95.334-23.668-116 23.668-116 63.668-95.332 95.332-63.668 116-23.668 116 23.668 95.332 63.668 63.668 95.332 23.668 116-23.668 116-63.668 95.334-95.332 63.666-116 23.668z" />
<glyph unicode="&#xe037;" glyph-name="untitled3" d="M336 960c-185.28 0-336-150.72-336-336s150.72-336 336-336c87.2 0 166.496 33.664 226.272 88.32 0.704-1.248 1.344-2.56 2.432-3.648l68.832-68.832c-5.76-9.728-9.024-20.736-9.024-32.352 0-17.088 6.656-33.152 18.752-45.248l271.52-271.52c12.064-12.064 28.128-18.72 45.216-18.72s33.152 6.656 45.248 18.752 18.752 28.16 18.752 45.248-6.656 33.152-18.752 45.248l-271.52 271.52c-20.288 20.288-53.088 23.328-77.44 9.568l-68.96 68.96c-1.088 1.088-2.368 1.728-3.648 2.432 54.656 59.776 88.32 139.072 88.32 226.272 0 185.28-150.72 336-336 336zM711.104 294.144l271.52-271.52c6.048-6.048 9.376-14.080 9.376-22.624s-3.328-16.576-9.376-22.624c-12.128-12.064-33.12-12.064-45.248 0l-271.52 271.52c-6.016 6.048-9.376 14.080-9.376 22.624s3.328 16.576 9.376 22.624c6.048 6.016 14.080 9.376 22.624 9.376s16.544-3.328 22.624-9.376zM336 320c-167.616 0-304 136.384-304 304s136.384 304 304 304 304-136.384 304-304-136.384-304-304-304zM336 864c-132.352 0-240-107.648-240-240s107.648-240 240-240 240 107.648 240 240-107.648 240-240 240zM336 416c-114.688 0-208 93.312-208 208s93.312 208 208 208 208-93.312 208-208-93.312-208-208-208z" />
<glyph unicode="&#xe040;" glyph-name="untitled4" d="M512 896q95.668 0 182.5-37.168t149.668-100 100-149.666 37.168-182.5-37.168-182.5-100-149.668-149.668-100-182.5-37.168-182.5 37.168-149.668 100-100 149.668-37.168 182.5 37.168 182.5 100 149.666 149.668 100 182.5 37.168zM512 810.666q-78 0-149.168-30.5t-122.5-81.834-81.832-122.5-30.5-149.168 30.5-149.168 81.832-122.5 122.5-81.832 149.168-30.5 149.168 30.5 122.5 81.832 81.832 122.5 30.5 149.168-30.5 149.168-81.832 122.5-122.5 81.834-149.168 30.5zM512 640q17.668 0 30.168-12.5t12.5-30.168v-128h128q17.668 0 30.168-12.5t12.5-30.168-12.5-30.168-30.168-12.5h-128v-128q0-17.668-12.5-30.168t-30.168-12.5-30.168 12.5-12.5 30.168v128h-128q-17.668 0-30.168 12.5t-12.5 30.168 12.5 30.168 30.168 12.5h128v128q0 17.668 12.5 30.168t30.168 12.5z" />
<glyph unicode="&#xe041;" glyph-name="untitled5" d="M512 896q95.668 0 182.5-37.168t149.668-100 100-149.666 37.168-182.5-37.168-182.5-100-149.668-149.668-100-182.5-37.168-182.5 37.168-149.668 100-100 149.668-37.168 182.5 37.168 182.5 100 149.666 149.668 100 182.5 37.168zM512 810.666q-78 0-149.168-30.5t-122.5-81.834-81.832-122.5-30.5-149.168 30.5-149.168 81.832-122.5 122.5-81.832 149.168-30.5 149.168 30.5 122.5 81.832 81.832 122.5 30.5 149.168-30.5 149.168-81.832 122.5-122.5 81.834-149.168 30.5zM341.334 469.334h341.334q17.668 0 30.168-12.5t12.5-30.168-12.5-30.168-30.168-12.5h-341.334q-17.666 0-30.166 12.5t-12.5 30.168 12.5 30.168 30.168 12.5z" />
<glyph unicode="&#xe044;" glyph-name="untitled6" d="M170.668 896h682.668q53 0 90.5-37.5t37.5-90.5v-682.668q0-53-37.5-90.5t-90.5-37.5h-682.668q-53 0-90.5 37.5t-37.5 90.5v682.668q0 53 37.5 90.5t90.5 37.5zM853.332 810.666h-682.668q-17.668 0-30.168-12.5t-12.5-30.168v-682.668q0-17.668 12.5-30.168t30.168-12.5h682.668q17.668 0 30.168 12.5t12.5 30.168v682.668q0 17.668-12.5 30.168t-30.168 12.5zM512 640q17.668 0 30.168-12.5t12.5-30.168v-128h128q17.668 0 30.168-12.5t12.5-30.168-12.5-30.168-30.168-12.5h-128v-128q0-17.668-12.5-30.168t-30.168-12.5-30.168 12.5-12.5 30.168v128h-128q-17.668 0-30.168 12.5t-12.5 30.168 12.5 30.168 30.168 12.5h128v128q0 17.668 12.5 30.168t30.168 12.5z" />
<glyph unicode="&#xe045;" glyph-name="untitled7" d="M170.668 896h682.668q53 0 90.5-37.5t37.5-90.5v-682.668q0-53-37.5-90.5t-90.5-37.5h-682.668q-53 0-90.5 37.5t-37.5 90.5v682.668q0 53 37.5 90.5t90.5 37.5zM853.332 810.666h-682.668q-17.668 0-30.168-12.5t-12.5-30.168v-682.668q0-17.668 12.5-30.168t30.168-12.5h682.668q17.668 0 30.168 12.5t12.5 30.168v682.668q0 17.668-12.5 30.168t-30.168 12.5zM341.334 469.334h341.334q17.668 0 30.168-12.5t12.5-30.168-12.5-30.168-30.168-12.5h-341.334q-17.666 0-30.166 12.5t-12.5 30.168 12.5 30.168 30.168 12.5z" />
<glyph unicode="&#xe05d;" glyph-name="untitled8" d="M512 961.088c-282.912 0-513.12-230.144-513.12-513.088s230.208-513.088 513.12-513.088 513.12 230.144 513.12 513.088-230.208 513.088-513.12 513.088zM512-30.912c-264.064 0-478.88 214.848-478.88 478.912s214.816 478.912 478.88 478.912 478.88-214.848 478.88-478.912-214.816-478.912-478.88-478.912zM624 736h-85.376c-108.736 1.088-122.624-66.208-122.624-139.040v-52.96h-48c-9.44 1.088-17.12-6.56-16-16v-96c-1.12-9.44 6.56-17.088 16-16h48v-240c-0.992-9.44 6.656-17.088 16.096-16h97.76c9.44-1.088 17.088 6.56 14.080 16l0.064 240h80c9.44-1.088 17.12 6.56 16 16v96c1.12 9.44-6.56 17.088-16 16h-80.096l0.096 48c3.104 20.448 3.104 17.12 22.080 16h57.248c4.448 0.992 9.184 0.448 12.512 3.68s5.248 7.648 4.128 12.32v96c1.152 9.44-6.528 17.088-15.968 16zM606.88 641.792l-40.128 1.536c-49.696 0-53.856-26.976-53.856-54.592l-0.128-60.672c0-4.544 1.792-8.896 4.992-12.128 3.2-3.2 7.552-4.992 12.096-4.992h78.144v-61.824h-78.080c-9.44 0-17.088-7.648-17.12-17.088l-0.032-240.032h-64.768v240c0 9.44-6.432 17.088-15.904 17.088h-48.096v61.824h48.096c4.544 0 8.896 1.792 12.096 4.992 3.2 3.232 3.776 7.584 3.776 12.128v68.96c0 71.744 14.496 105.92 90.624 105.92h68.256v-61.12z" />
<glyph unicode="&#xe05e;" glyph-name="untitled9" d="M512 961.088c-282.912 0-513.12-230.144-513.12-513.088s230.208-513.088 513.12-513.088 513.12 230.144 513.12 513.088-230.208 513.088-513.12 513.088zM512-30.912c-264.064 0-478.88 214.848-478.88 478.912s214.816 478.912 478.88 478.912 478.88-214.848 478.88-478.912-214.816-478.912-478.88-478.912zM793.408 606.528c3.52 6.528 6.464 13.408 8.736 20.576 2.144 6.784-0.064 14.144-5.632 18.592-5.536 4.416-13.28 4.928-19.36 1.344-16.416-9.76-34.080-16.96-52.672-21.536-22.336 20.192-51.68 31.584-81.984 31.584-67.36 0-122.144-54.784-122.144-122.080 0-1.696 0.032-3.36 0.096-5.056-71.52 8.928-137.536 45.28-183.52 101.696-3.52 4.352-8.96 6.624-14.592 6.24-5.6-0.448-10.624-3.584-13.44-8.48-10.816-18.56-16.544-39.776-16.544-61.408 0-20.48 5.088-40.192 14.432-57.664-2.368-0.384-4.704-1.248-6.848-2.496-5.216-3.104-8.448-9.344-8.448-15.392 0-36.32 16.16-69.664 42.208-92.32-0.384-0.352-0.736-0.736-1.12-1.12-4-4.544-5.312-10.816-3.456-16.576 11.232-35.008 37.248-62.272 69.888-75.68-33.312-16.48-72-22.912-108.992-18.528-7.808 0.704-15.392-3.712-18.112-11.264-2.656-7.488 0.16-15.84 6.88-20.16 50.944-32.64 109.792-49.888 170.208-49.888 197.76 0 315.968 160.64 315.968 315.936 0 1.76 0 3.488-0.032 5.248 19.104 14.912 35.68 32.736 49.312 53.12 4.224 6.304 3.776 14.688-1.12 20.512-4.832 5.728-12.8 7.712-19.712 4.8zM737.568 550.368c-4.704-3.392-7.392-8.928-7.104-14.752 0.192-4.224 0.288-8.512 0.288-12.736 0-138.496-105.376-281.76-281.728-281.76-31.648 0-62.848 5.312-92.384 15.616 35.36 6.752 68.512 21.824 97.44 44.48 5.696 4.48 7.968 12.032 5.664 18.912-2.304 6.848-8.672 11.52-15.904 11.648-28.512 0.576-54.368 14.752-70.208 37.184 8.096 0.544 16.032 1.888 23.744 3.968 7.648 2.080 12.832 9.152 12.576 17.088-0.256 7.904-5.952 14.624-13.728 16.192-32.096 6.432-57.28 30.176-66.592 60.96 8.512-2.144 17.248-3.392 25.984-3.68 7.52 0.032 14.496 4.64 16.832 11.872s-0.416 15.2-6.784 19.424c-24.48 16.384-39.104 43.712-39.104 73.184 0 7.136 0.864 14.176 2.528 21.056 55.392-56.8 130.56-91.104 210.176-95.104 5.632-0.032 10.56 1.984 13.984 6.112s4.736 9.6 3.52 14.848c-1.504 6.496-2.272 13.248-2.272 20.064 0 48.48 39.456 87.904 87.936 87.904 24.224 0 47.616-10.112 64.16-27.776 4.032-4.32 9.984-6.208 15.808-5.088 5.28 1.056 10.496 2.272 15.648 3.68-2.304-1.728-4.704-3.328-7.232-4.832-6.912-4.128-9.984-12.576-7.392-20.192s10.368-12.608 18.208-11.424c1.952 0.224 3.872 0.48 5.824 0.736-3.168-2.624-6.496-5.152-9.888-7.584z" />
<glyph unicode="&#xe05f;" glyph-name="untitled10" d="M512 961.088c-282.944 0-513.088-230.144-513.088-513.088s230.144-513.088 513.088-513.088 513.088 230.144 513.088 513.088-230.144 513.088-513.088 513.088zM512-30.912c-264.064 0-478.912 214.848-478.912 478.912s214.848 478.912 478.912 478.912 478.912-214.848 478.912-478.912-214.848-478.912-478.912-478.912zM577.088 654.016c0 9.44-7.648 17.088-17.088 17.088h-136.32c-0.832 0-1.504-0.352-2.304-0.48-1.824 0.064-3.52 0.48-5.376 0.48-71.2 0-129.088-49.376-129.088-110.080s57.92-110.080 129.088-110.080c9.824 0 19.296 1.12 28.512 2.912-2.4-9.312-3.712-20-2.112-31.936 1.504-11.168 5.952-21.856 11.776-32.256-11.872 2.080-24.096 3.488-36.832 3.488-88.064 0-159.712-52.96-159.712-118.080s71.648-118.080 159.712-118.080c88.096 0 159.744 52.96 159.744 118.080 0 33.472-19.136 63.584-49.504 85.088-1.216 3.072-3.040 5.92-5.984 7.904-27.136 18.368-42.336 37.888-45.216 57.984-3.2 22.368 9.984 38.72 10.656 39.552 1.44 1.696 2.432 3.616 3.104 5.6 33.152 19.936 54.976 52.704 54.976 89.856 0 29.472-13.824 56.128-36 75.904h50.88c9.44-0.064 17.088 7.616 17.088 17.056zM417.344 191.104c-69.216 0-125.536 37.664-125.536 83.904s56.32 83.904 125.536 83.904 125.568-37.664 125.568-83.904-56.352-83.904-125.568-83.904zM416 485.088c-52.32 0-94.912 34.048-94.912 75.904s42.592 75.904 94.912 75.904 94.912-34.048 94.912-75.904-42.592-75.904-94.912-75.904zM809.984 576h-74.912v76c0 9.44-7.648 17.088-17.088 17.088s-17.088-7.648-13.984-13.088v-80h-78.016c-9.44 1.088-17.088-6.56-17.088-16s7.648-17.088 17.088-16h78.016v-76c0-9.44 4.576-17.088 14.016-17.088s17.088 7.648 17.088 17.088v76h74.912c9.44-1.088 17.088 6.56 17.088 16s-7.68 17.088-17.12 16z" />
<glyph unicode="&#xe060;" glyph-name="untitled11" d="M512 961.088c-282.944 0-513.088-230.144-513.088-513.088s230.144-513.088 513.088-513.088 513.088 230.144 513.088 513.088-230.144 513.088-513.088 513.088zM512-30.912c-264.064 0-478.912 214.848-478.912 478.912s214.848 478.912 478.912 478.912 478.912-214.848 478.912-478.912-214.848-478.912-478.912-478.912zM336.064 513.568c-9.44 0-17.088-7.648-17.088-17.088s7.648-17.088 17.088-17.088c72.096 0 132.48-22.304 174.528-64.512 42.080-42.176 64.32-102.656 64.32-174.88 0-9.44 7.648-17.088 17.088-17.088s17.088 7.648 17.088 17.088c0.032 81.472-25.664 150.272-74.24 199.040-48.672 48.736-117.376 74.528-198.784 74.528zM336.16 671.136c-9.44 0-17.088-7.648-17.088-17.088s7.648-17.088 17.088-17.088c228.48 0 400.736-170.656 400.736-396.928 0-9.44 7.648-17.088 17.088-17.088s17.088 7.648 17.088 17.088c0.032 245.76-186.944 431.104-434.912 431.104zM383.968 355.776c-35.872 0-65.056-29.216-65.056-65.12 0-35.872 29.184-65.056 65.056-65.056 35.904 0 65.12 29.184 65.12 65.088-0.032 35.904-29.248 65.088-65.12 65.088zM383.968 259.776c-17.024 0-30.88 13.856-30.88 30.88 0 17.056 13.856 30.944 30.88 30.944s30.912-13.92 30.944-30.944c0-17.024-13.888-30.88-30.944-30.88z" />
<glyph unicode="&#xe061;" glyph-name="untitled12" d="M512 961.088c-282.944 0-513.088-230.144-513.088-513.088s230.144-513.088 513.088-513.088 513.088 230.144 513.088 513.088-230.144 513.088-513.088 513.088zM512-30.912c-264.064 0-478.912 214.848-478.912 478.912s214.848 478.912 478.912 478.912 478.912-214.848 478.912-478.912-214.848-478.912-478.912-478.912zM655.936 576h-111.936v112.032c1.056 9.44-6.592 17.088-16.032 17.088h-82.528c-8.64 0-15.904-6.4-16.96-15.008-3.040-24.416-8.512-44.448-16.224-59.616-7.552-14.944-17.792-27.936-30.4-38.688-10.272-8.736-27.936-17.344-51.040-24.8-7.072-2.272-11.84-8.864-10.816-16.288v-86.688c-1.024-9.44 6.624-17.088 16.064-16.032l47.936-32v-149.376c-1.088 9.632 1.184 3.104 5.632-7.392l1.888-4.544c0.16-0.416 16.384-40.736 35.904-57.568 14.4-12.352 31.84-21.952 51.84-28.544 18.72-6.112 34.592-9.664 60.512-9.664 21.824 0 42.464 2.208 61.44 6.624 21.792 5.088 41.504 11.968 62.016 21.664 6.016 2.816 9.824 8.832 8.768 15.456v76.96c1.024 6.272-2.4 12.064-7.936 15.072s-12.256 2.688-17.536-0.768c-22.56-14.816-34.656-17.472-57.472-17.472-10.624 0-19.84 2.176-28.192 6.752-3.36 6.112-8.224 24.896-10.080 32.288-1.664 6.368-3.072 11.584-4.032 14.176-1.76 4.672-1.76 21.376-1.728 40.704l0.032 77.632h110.88c9.44-1.056 17.088 6.592 16.064 16.032v96c1.024 9.44-6.624 17.088-16.064 15.968zM638.848 480h-110.88c-9.44 1.12-17.088-6.528-15.968-15.968l-0.064-93.568c-1.152-27.296-1.152-42.304 2.784-52.8 0.736-1.952 1.696-5.888 2.944-10.688 8.128-31.648 13.248-45.888 23.776-52.064 14.016-8.384 30.016-12.64 47.616-12.64 18.336 0 33.056 1.6 49.792 8.608v-37.12c-14.88-6.368-29.568-11.168-45.44-14.88-16.416-3.808-34.432-5.76-53.664-5.76-21.568 0-33.728 2.688-49.856 7.968-15.68 5.184-29.248 12.608-40.224 22.016-8.704 7.488-20.928 30.528-26.4 44.256l-2.112 5.152c-3.040 7.2-4.064 9.632-5.152 26.112v165.408c1.088 9.44-6.56 17.088-16 17.088h-46.848v57.408c22.016 8.032 39.072 17.184 50.848 27.264 16.128 13.696 29.152 30.24 38.752 49.216 7.776 15.328 13.632 34.048 17.44 55.936h50.688v-110.912c0-9.44 7.648-17.088 17.088-16.032h110.88v-64z" />
<glyph unicode="&#xe062;" glyph-name="untitled13" d="M624.48 577.536c-21.696 0-37.76-5.472-50.336-12.384-2.016 7.168-8.64 12.416-16.448 10.848h-95.488c-9.44 1.568-17.088-6.080-14.176-16v-352c-2.912-8.96 4.736-16.64 14.176-16h95.488c9.44-0.64 17.088 7.040 17.088 16.48l-0.032 212.736c-0.032 0.096-0.384 10.272 6.048 17.28 5.152 5.568 14.016 8.416 26.272 8.416 20.416 0 29.504-8.352 32.896-27.040v-211.392c-3.36-9.44 4.288-17.12 13.728-16.48h100.64c9.44-0.64 17.088 7.040 13.696 16.48v218.496c3.36 111.104-75.776 150.56-143.552 150.56zM737.216 224h-66.432v195.872c0 37.792-24.416 61.216-63.68 61.216-22.208 0-39.488-6.528-51.392-19.392-16.544-17.92-15.264-40.64-11.712-45.696v-192h-64.704v319.36h61.312v-10.752c0-6.496 3.68-12.48 9.536-15.328s12.8-2.144 17.984 1.792l4.48 3.456c12.96 10.208 26.368 20.8 51.904 20.8 26.432 0 112.736-8.416 112.736-116.384v-202.944zM352 737.088c-35.904 0-65.088-29.184-65.088-65.088s29.184-65.088 65.088-65.088 65.088 29.184 65.088 65.088-29.184 65.088-65.088 65.088zM352 641.088c-17.024 0-30.912 13.888-30.912 30.912s13.888 30.912 30.912 30.912 30.912-13.888 30.912-30.912-13.888-30.912-30.912-30.912zM397.696 577.568h-94.976c-9.44 0-17.088-7.648-14.72-17.568v-352c-2.368-8.96 5.28-16.64 14.72-16h94.976c9.44-0.64 17.088 7.040 17.088 16.48v352c0 9.44-7.648 17.088-17.088 17.088zM384 224h-64.192v319.36h64.192v-319.36zM512 961.088c-282.944 0-513.088-230.144-513.088-513.088s230.144-513.088 513.088-513.088 513.088 230.144 513.088 513.088-230.144 513.088-513.088 513.088zM512-30.912c-264.064 0-478.912 214.848-478.912 478.912s214.848 478.912 478.912 478.912 478.912-214.848 478.912-478.912-214.848-478.912-478.912-478.912z" />
<glyph unicode="&#xe063;" glyph-name="untitled14" d="M512 961.088c-282.944 0-513.088-230.144-513.088-513.088s230.144-513.088 513.088-513.088 513.088 230.144 513.088 513.088-230.144 513.088-513.088 513.088zM512-30.912c-264.064 0-478.912 214.848-478.912 478.912s214.848 478.912 478.912 478.912 478.912-214.848 478.912-478.912-214.848-478.912-478.912-478.912zM699.232 623.84c-49.216 52.416-115.68 81.248-187.232 81.248-33.6 0-66.4-6.464-97.504-19.264-88.256-36.16-148.896-117.504-158.304-212.192-0.8-8.448-1.28-16.96-1.28-25.632 0-77.696 34.624-150.4 95.072-199.52 45.664-37.12 103.232-57.568 162.016-57.568 37.088 0 73.152 7.936 107.264 23.616 69.632 32.064 120.96 92.832 140.832 166.752 0 0 0 0.032 0 0.032 5.952 22.4 8.992 44.832 8.992 66.688 0 65.472-24.8 127.904-69.856 175.84zM730.752 406.24c-5.664 1.216-11.168 1.76-16.8 2.752-7.456 1.312-14.912 2.688-22.272 3.648-8.736 1.12-17.28 1.696-25.856 2.272-6.912 0.448-13.824 1.056-20.608 1.152-2.112 0.032-4.352 0.352-6.464 0.352-11.264 0-22.432-0.544-33.536-1.504-1.44-0.128-2.848-0.416-4.288-0.544-8.96-0.896-17.888-1.92-26.656-3.456-1.44 3.744-3.072 7.264-4.544 10.976-5.952 15.072-12.096 29.92-18.432 44.544-1.568 3.584-2.944 7.36-4.512 10.912 3.36 1.344 6.368 2.848 9.632 4.256 3.328 1.44 6.656 2.848 9.856 4.352 7.104 3.328 13.856 6.784 20.384 10.368 2.080 1.152 4.288 2.208 6.304 3.36 8.32 4.8 16.16 9.824 23.552 14.976 1.76 1.248 3.36 2.528 5.056 3.776 5.568 4.064 10.912 8.16 15.936 12.32 2.176 1.824 4.224 3.616 6.304 5.44 4.384 3.84 8.544 7.68 12.48 11.52 1.792 1.728 3.584 3.456 5.28 5.216 4.48 4.576 8.64 9.152 12.576 13.696 0.768 0.896 1.664 1.792 2.4 2.688 4.192 4.992 8.128 9.92 11.712 14.752 30.208-38.944 46.656-86.496 46.656-136.064 0-13.664-1.408-27.648-4.16-41.76zM512 670.912c57.472 0 111.168-21.504 152.704-60.864-0.448-0.672-0.832-1.28-1.312-1.92-1.216-1.696-2.56-3.424-3.84-5.12-2.336-3.104-4.8-6.24-7.424-9.44-1.568-1.888-3.2-3.808-4.864-5.696-2.752-3.136-5.664-6.304-8.704-9.472-1.824-1.92-3.68-3.84-5.632-5.76-3.424-3.36-7.136-6.72-10.912-10.048-1.888-1.664-3.648-3.328-5.632-4.992-5.888-4.928-12.096-9.792-18.816-14.496-0.416-0.288-0.928-0.576-1.376-0.896-6.304-4.384-13.024-8.64-20.096-12.736-2.592-1.504-5.44-2.912-8.16-4.384-5.184-2.816-10.496-5.568-16.064-8.16-3.424-1.6-7.040-3.136-10.624-4.64-2.88-1.216-5.984-2.336-8.96-3.52-0.8 1.696-1.632 3.168-2.432 4.864-6.688 13.92-13.376 27.424-20 40.096-0.512 0.992-1.024 1.888-1.536 2.88-6.336 12.096-12.544 23.456-18.688 34.368-1.408 2.496-2.784 4.992-4.192 7.424-6.176 10.816-12.16 21.024-17.92 30.56-1.312 2.176-2.528 4.128-3.808 6.208-5.184 8.448-10.176 16.384-14.88 23.68-0.48 0.736-1.056 1.696-1.536 2.432 20.96 6.368 42.656 9.632 64.704 9.632zM414.752 648.512c0.192-0.288 0.384-0.576 0.576-0.864 5.056-7.712 10.56-16.384 16.288-25.6 1.216-1.952 2.464-3.968 3.68-5.984 5.92-9.632 12.032-19.872 18.4-31.008 0.704-1.216 1.408-2.528 2.112-3.744 5.984-10.496 12.128-21.728 18.368-33.44 1.184-2.24 2.368-4.416 3.584-6.72 6.624-12.608 13.312-25.952 20.032-39.872 0.48-0.992 0.96-2.016 1.44-3.008-10.624-2.976-21.056-6.208-32.384-8.352-1.728-0.32-3.52-0.544-5.248-0.864-34.368-6.080-71.872-8.256-112-6.72-3.104 0.128-6.112 0.128-9.28 0.288-15.424 0.8-31.552 2.656-47.744 4.576 12.48 70.24 57.76 130.112 122.176 161.312zM289.088 448c0 1.536 0.032 3.104 0.064 4.64 4.544-0.544 8.768-0.576 13.28-1.024 12.544-1.28 24.864-2.272 36.992-2.912 7.2-0.384 14.336-0.672 21.376-0.8 4.32-0.096 8.928-0.512 13.184-0.512 0 0 0 0 0.032 0 9.184 0 18.016 0.544 26.912 0.96 3.744 0.16 7.584 0.16 11.264 0.384 16.544 1.088 32.608 2.912 48.16 5.408 4.032 0.64 7.84 1.536 11.776 2.272 11.936 2.24 23.52 4.896 34.752 8 2.336 0.64 4.896 0.96 7.168 1.664 1.632-3.616 3.2-7.296 4.8-10.976 5.984-13.696 11.808-27.616 17.408-41.728 1.344-3.392 2.688-6.816 4.032-10.24-3.456-0.992-6.656-2.24-10.048-3.328-4.416-1.376-8.8-2.784-13.056-4.32-7.008-2.496-13.728-5.248-20.384-8.096-3.616-1.568-7.328-3.008-10.848-4.672-7.968-3.744-15.616-7.776-23.040-11.968-1.792-0.992-3.712-1.92-5.472-2.944-9.12-5.312-17.76-10.944-26.016-16.736-2.304-1.6-4.384-3.296-6.624-4.928-5.824-4.288-11.552-8.576-16.928-12.992-2.72-2.24-5.248-4.48-7.872-6.72-4.576-3.936-8.992-7.872-13.248-11.84-2.56-2.432-5.056-4.8-7.488-7.232-3.872-3.84-7.584-7.616-11.136-11.424-2.272-2.432-4.576-4.832-6.72-7.232-0.8-0.896-1.728-1.824-2.528-2.688-44.512 42.080-69.792 100.224-69.792 161.984zM385.664 264.416c0.576 0.64 1.024 1.216 1.6 1.856 1.92 2.144 4.032 4.288 6.048 6.464 3.264 3.488 6.656 6.976 10.208 10.464 2.272 2.24 4.64 4.48 7.040 6.72 3.712 3.488 7.616 6.976 11.616 10.432 2.56 2.208 5.12 4.416 7.776 6.592 4.416 3.616 9.088 7.136 13.792 10.624 2.592 1.92 5.088 3.872 7.744 5.728 6.4 4.48 13.12 8.768 20.032 12.928 1.28 0.768 2.432 1.6 3.744 2.368 8.256 4.8 16.928 9.312 25.952 13.536 2.752 1.28 5.696 2.368 8.512 3.584 6.496 2.816 13.088 5.536 19.968 7.968 3.648 1.28 7.424 2.4 11.2 3.584 3.712 1.152 7.616 2.144 11.456 3.2 7.2-20.064 14.24-40.256 20.544-60.928 0.288-0.928 0.608-1.792 0.896-2.72 6.624-21.952 12.384-44.32 17.92-66.784-68.416-26.464-146.624-16.768-206.048 24.384zM623.552 255.264c-5.056 20.096-10.624 40.032-16.544 59.744-0.224 0.768-0.416 1.568-0.64 2.336-6.176 20.384-12.768 40.48-19.776 60.256 4.64 0.736 9.248 1.6 13.952 2.144 3.904 0.448 7.808 0.96 11.744 1.248 11.424 0.864 22.976 1.216 34.752 0.96 1.312-0.032 2.592 0.096 3.904 0.032 13.216-0.448 26.624-1.728 40.224-3.584 3.68-0.512 7.424-1.28 11.136-1.888 6.336-1.056 12.768-2.464 19.168-3.808-17.728-49.6-52.288-91.072-97.92-117.44z" />
<glyph unicode="&#xe095;" glyph-name="untitled15" d="M597.332 768q18 0 30.332-12.332l298.666-298.668q12.332-12.334 12.332-30.334t-12.332-30.332l-298.666-298.668q-12.332-12.332-30.332-12.332-18.332 0-30.5 12.168t-12.168 30.5q0 18 12.332 30.332l226 225.668h-665q-17.668 0-30.168 12.5t-12.5 30.168 12.5 30.168 30.168 12.5h665l-226 225.666q-12.332 12.334-12.332 30.334 0 18.332 12.168 30.5t30.5 12.166z" />
<glyph unicode="&#xe097;" glyph-name="untitled16" d="M512 853.334q17.668 0 30.168-12.5t12.5-30.166v-665l225.668 226q12.332 12.332 30.332 12.332 18.332 0 30.5-12.168t12.168-30.5q0-18-12.332-30.332l-298.668-298.668q-12.332-12.332-30.332-12.332t-30.332 12.332l-298.666 298.666q-12.332 12.332-12.332 30.332 0 18.332 12.168 30.5t30.5 12.168q18 0 30.332-12.332l225.668-226v665q0 17.668 12.5 30.168t30.168 12.5z" />
<glyph unicode="&#xe102;" glyph-name="untitled17" d="M682.668 896h170.668q53 0 90.5-37.5t37.5-90.5v-170.666q0-53-37.5-90.5t-90.5-37.5h-170.668q-53 0-90.5 37.5t-37.5 90.5v170.666q0 53 37.5 90.5t90.5 37.5zM170.668 384h170.668q53 0 90.5-37.5t37.5-90.5v-170.668q0-53-37.5-90.5t-90.5-37.5h-170.668q-53 0-90.5 37.5t-37.5 90.5v170.668q0 53 37.5 90.5t90.5 37.5zM341.334 298.666h-170.668q-17.668 0-30.168-12.5t-12.5-30.168v-170.668q0-17.668 12.5-30.168t30.168-12.5h170.668q17.666 0 30.166 12.5t12.5 30.168v170.668q0 17.668-12.5 30.168t-30.168 12.5zM170.668 896h170.668q53 0 90.5-37.5t37.5-90.5v-170.666q0-53-37.5-90.5t-90.5-37.5h-170.668q-53 0-90.5 37.5t-37.5 90.5v170.666q0 53 37.5 90.5t90.5 37.5zM341.334 810.666h-170.668q-17.668 0-30.168-12.5t-12.5-30.168v-170.666q0-17.666 12.5-30.166t30.168-12.5h170.668q17.666 0 30.166 12.5t12.5 30.166v170.668q0 17.668-12.5 30.168t-30.168 12.5zM682.668 384h170.668q53 0 90.5-37.5t37.5-90.5v-170.668q0-53-37.5-90.5t-90.5-37.5h-170.668q-53 0-90.5 37.5t-37.5 90.5v170.668q0 53 37.5 90.5t90.5 37.5zM853.332 298.666h-170.668q-17.668 0-30.168-12.5t-12.5-30.168v-170.668q0-17.668 12.5-30.168t30.168-12.5h170.668q17.668 0 30.168 12.5t12.5 30.168v170.668q0 17.668-12.5 30.168t-30.168 12.5zM853.332 810.666h-170.668q-17.668 0-30.168-12.5t-12.5-30.168v-170.666q0-17.666 12.5-30.166t30.168-12.5h170.668q17.668 0 30.168 12.5t12.5 30.166v170.668q0 17.668-12.5 30.168t-30.168 12.5z" />
<glyph unicode="&#xe117;" glyph-name="untitled18" d="M810.668 768q18.332 0 30.5-12.166t12.168-30.5q0-18-12.332-30.334l-268.668-268.332 268.666-268.334q12.332-12.332 12.332-30.332 0-18.332-12.168-30.5t-30.5-12.168q-18 0-30.332 12.332l-268.332 268.668-268.334-268.666q-12.332-12.332-30.332-12.332-18.332 0-30.5 12.168t-12.168 30.5q0 18 12.332 30.332l268.666 268.334-268.666 268.334q-12.332 12.332-12.332 30.332 0 18.334 12.168 30.5t30.5 12.168q18 0 30.332-12.334l268.334-268.666 268.334 268.666q12.332 12.332 30.332 12.332z" />
<glyph unicode="&#xe120;" glyph-name="untitled19" d="M128 725.334h768q17.668 0 30.168-12.5t12.5-30.166-12.5-30.168-30.168-12.5h-768q-17.668 0-30.168 12.5t-12.5 30.168 12.5 30.166 30.168 12.5zM128 213.334h768q17.668 0 30.168-12.5t12.5-30.168-12.5-30.168-30.168-12.5h-768q-17.668 0-30.168 12.5t-12.5 30.168 12.5 30.168 30.168 12.5zM128 469.334h768q17.668 0 30.168-12.5t12.5-30.168-12.5-30.168-30.168-12.5h-768q-17.668 0-30.168 12.5t-12.5 30.168 12.5 30.168 30.168 12.5z" />
<glyph unicode="&#xe129;" glyph-name="untitled20" d="M853.332 554.666q53 0 90.5-37.5t37.5-90.5-37.5-90.5-90.5-37.5-90.5 37.5-37.5 90.5 37.5 90.5 90.5 37.5zM170.668 554.666q53 0 90.5-37.5t37.5-90.5-37.5-90.5-90.5-37.5-90.5 37.5-37.5 90.5 37.5 90.5 90.5 37.5zM170.668 469.334q-17.668 0-30.168-12.5t-12.5-30.168 12.5-30.168 30.168-12.5 30.168 12.5 12.5 30.168-12.5 30.168-30.168 12.5zM512 554.666q53 0 90.5-37.5t37.5-90.5-37.5-90.5-90.5-37.5-90.5 37.5-37.5 90.5 37.5 90.5 90.5 37.5zM512 469.334q-17.668 0-30.168-12.5t-12.5-30.168 12.5-30.168 30.168-12.5 30.168 12.5 12.5 30.168-12.5 30.168-30.168 12.5zM853.332 469.334q-17.668 0-30.168-12.5t-12.5-30.168 12.5-30.168 30.168-12.5 30.168 12.5 12.5 30.168-12.5 30.168-30.168 12.5z" />
<glyph unicode="&#xe600;" glyph-name="untitled21" d="M0 64c0 70.692 57.308 128 128 128s128-57.308 128-128c0-70.692-57.308-128-128-128s-128 57.308-128 128zM192 960v-128c388.736 0 704-315.232 704-704h128c0 459.456-372.576 832-832 832zM192.736 703.744c-0.256 0-0.48-0.032-0.736-0.032v-128c0.256 0 0.48 0.032 0.736 0.032 247.328 0 447.872-200.48 448-447.744h128c-0.128 317.984-257.984 575.744-576 575.744zM192.736 447.744c-0.256 0-0.48-0.032-0.736-0.032v-128c0.256 0 0.48 0.032 0.736 0.032 105.952 0 191.872-85.856 192-191.744h128c-0.128 176.608-143.36 319.744-320 319.744z" />
<glyph unicode="&#xe601;" glyph-name="untitled22" d="M1024 576h-384v384h-256v-384h-384v-256h384v-384h256v384h384z" />
<glyph unicode="&#xe602;" glyph-name="untitled23" d="M0 576h1024v-256h-1024z" />
<glyph unicode="&#xe603;" glyph-name="untitled24" d="M644.256 960c-209.248 0-379.52-170.24-379.52-379.616 0-50.112 10.24-97.632 27.872-141.376l-292.608-292.64 210.24-210.368 292.736 292.864c43.744-17.76 91.264-28 141.248-28 209.376 0 379.744 170.24 379.744 379.456 0.032 209.44-170.336 379.68-379.712 379.68zM644.256 328.736c-138.624 0-251.616 112.992-251.616 251.584 0 138.752 112.992 251.744 251.616 251.744 138.88 0 251.872-112.992 251.872-251.744 0-138.56-112.992-251.584-251.872-251.584z" />
<glyph unicode="&#xe604;" glyph-name="untitled25" d="M320 960h-192c-70.656 0-128-57.344-128-128v-192c0-70.656 57.344-128 128-128h192c70.656 0 128 57.344 128 128v192c0 70.656-57.344 128-128 128zM320 704c0-35.328-28.608-64-64-64h-64c-35.392 0-64 28.672-64 64v64c0 35.328 28.608 64 64 64h64c35.392 0 64-28.672 64-64v-64zM320 384h-192c-70.656 0-128-57.344-128-128v-192c0-70.656 57.344-128 128-128h192c70.656 0 128 57.344 128 128v192c0 70.656-57.344 128-128 128zM320 128c0-35.392-28.608-64-64-64h-64c-35.392 0-64 28.608-64 64v64c0 35.392 28.608 64 64 64h64c35.392 0 64-28.608 64-64v-64zM896 384h-192c-70.656 0-128-57.344-128-128v-192c0-70.656 57.344-128 128-128h192c70.656 0 128 57.344 128 128v192c0 70.656-57.344 128-128 128zM896 128c0-35.392-28.608-64-64-64h-64c-35.392 0-64 28.608-64 64v64c0 35.392 28.608 64 64 64h64c35.392 0 64-28.608 64-64v-64zM896 960h-192c-70.656 0-128-57.344-128-128v-192c0-70.656 57.344-128 128-128h192c70.656 0 128 57.344 128 128v192c0 70.656-57.344 128-128 128zM896 704c0-35.328-28.608-64-64-64h-64c-35.392 0-64 28.672-64 64v64c0 35.328 28.608 64 64 64h64c35.392 0 64-28.672 64-64v-64z" />
<glyph unicode="&#xe605;" glyph-name="untitled26" d="M1000.64 70.848l-184.896 184.896c50.688 72.576 80.64 160.704 80.64 255.936 0 247.424-200.64 448-448 448s-448-200.576-448-448c0-247.424 200.576-448 448-448 95.232 0 183.424 29.952 256 80.64l184.896-184.896c30.72-30.72 80.64-30.72 111.36 0s30.72 80.576 0 111.424zM448.32 191.616c-176.704 0-320 143.232-320 320s143.296 320 320 320c176.768 0 320-143.232 320-320 0.064-176.768-143.168-320-320-320z" />
<glyph unicode="&#xe606;" glyph-name="untitled27" d="M768 448h-384v-128c0-70.688 57.312-128 128-128h256c70.688 0 128-57.312 128-128s-57.312-128-128-128h-256c-212.064 0-384 171.936-384 384v512c0 70.688 57.312 128 128 128s128-57.312 128-128v-128h384c70.688 0 128-57.312 128-128s-57.312-128-128-128z" />
<glyph unicode="&#xe607;" glyph-name="untitled28" d="M992 576h-352v352c0 17.664-14.304 32-32 32h-192c-17.696 0-32-14.336-32-32v-352h-352c-17.696 0-32-14.336-32-32v-192c0-17.696 14.304-32 32-32h352v-352c0-17.696 14.304-32 32-32h192c17.696 0 32 14.304 32 32v352h352c17.696 0 32 14.304 32 32v192c0 17.664-14.304 32-32 32z" />
<glyph unicode="&#xe608;" glyph-name="untitled29" d="M32 576h960c17.696 0 32-14.336 32-32v-192c0-17.696-14.304-32-32-32h-960c-17.664 0-32 14.304-32 32v192c0 17.664 14.336 32 32 32z" />
<glyph unicode="&#xe609;" glyph-name="untitled30" d="M1014.88 33.504c12.192-12.192 12.192-31.968 0-44.192l-44.192-44.192c-12.224-12.192-32-12.192-44.192 0l-309.376 309.376c-3.36 3.36-5.6 7.328-7.104 11.552-63.456-46.368-141.376-74.048-226.016-74.048-212.064 0-384 171.936-384 384s171.936 384 384 384c212.064 0 384-171.936 384-384 0-84.64-27.68-162.56-74.048-226.016 4.224-1.504 8.192-3.712 11.552-7.104l309.376-309.376zM384 832c-141.376 0-256-114.624-256-256s114.624-256 256-256 256 114.624 256 256c0 141.376-114.624 256-256 256z" />
<glyph unicode="&#xe60a;" glyph-name="untitled31" d="M842.688-64c-0.8 459.232-401.504 834.528-842.688 835.392v188.608c541.312 0 1024-460.608 1024-1024h-181.312zM687.2-63.936h-181.216c0.608 112.768-56.672 238.976-147.328 333.472-90.144 95.264-249.92 155.296-358.208 154.72v188.544c338.080-7.296 679.872-326.624 686.752-676.736zM128.512 192.096c70.624 0 127.872-57.312 127.872-128 0-70.656-57.248-127.968-127.872-127.968s-127.872 57.312-127.872 127.968c0 70.688 57.248 128 127.872 128z" />
<glyph unicode="&#xe60b;" glyph-name="untitled32" d="M983.072 743.232l-294.304-296.096 294.304-294.336c12.32-12.288 12.32-32.224 0-44.544l-133.632-133.6c-12.256-12.32-32.192-12.32-44.512 0l-293.824 293.824-292.064-293.824c-12.288-12.32-32.224-12.32-44.544 0l-133.6 133.6c-12.288 12.32-12.288 32.256 0 44.544l292.064 293.824-292.032 292.032c-12.288 12.288-12.288 32.224 0 44.544l133.6 133.6c12.288 12.32 32.224 12.32 44.544 0l291.52-291.52 294.368 296.096c12.32 12.32 32.256 12.32 44.512 0l133.632-133.6c12.256-12.32 12.256-32.256-0.032-44.544z" />
<glyph unicode="&#xe60c;" glyph-name="untitled33" d="M1024 369.556l-512 397.426-512-397.428v162.038l512 397.426 512-397.428zM896 384v-384h-256v256h-256v-256h-256v384l384 288z" />
<glyph unicode="&#xe60d;" glyph-name="untitled34" d="M1024 352l-192 192v288h-128v-160l-192 192-512-512v-32h128v-320h320v192h128v-192h320v320h128z" />
<glyph unicode="&#xe60e;" glyph-name="untitled35" d="M64 768h896v-192h-896zM64 512h896v-192h-896zM64 256h896v-192h-896z" />
<glyph unicode="&#xe60f;" glyph-name="untitled36" d="M896 576h-347.808c22.456 80.91 33.808 100.592 33.808 186 0 73.888-60.112 134-134 134-73.886 0-134-60.112-134-134 0-103.972-38.722-151.95-115.090-205.71-2.268-1.596-4.578-3.162-6.91-4.71v88.42h-192v-640h192v57.004c63.662-4.302 81.12-22.192 102.446-44.084 16.452-16.89 36.928-37.912 74.030-53.276 38.954-16.13 89.646-23.644 159.524-23.644h64.98c61.938 0 112.326 51.268 112.326 114.286 0 10.47-1.424 20.876-4.19 30.9 19.71 20.996 30.964 49.002 30.964 78.814 0 10.468-1.424 20.876-4.19 30.898 19.71 20.998 30.964 49.006 30.964 78.816 0 18.036-4.142 35.1-11.488 50.286h148.634c70.694 0 128 57.306 128 128s-57.306 128-128 128zM96 64c-17.672 0-32 14.326-32 32s14.328 32 32 32 32-14.326 32-32-14.328-32-32-32zM890 384h-256v-64h6.532c26.646 0 48.326-22.558 48.326-50.286 0-17.37-8.468-33.29-22.654-42.586l-24.788-16.244 14.298-25.958c4.166-7.562 6.368-16.182 6.368-24.926 0-17.37-8.468-33.288-22.652-42.582l-24.79-16.244 14.298-25.96c4.166-7.562 6.368-16.182 6.368-24.928 0-27.726-21.68-50.286-48.326-50.286h-64.98c-126.562 0-152.088 38.206-179.112 65.95-27.588 28.32-58.49 59.984-150.888 66.728v334.374c15.756 8.264 30.7 17.264 44.658 27.090 96.392 67.858 147.342 139.546 147.342 267.858 0 31.982 30.020 58 62 58s60-26.018 60-58c0-85.66-12.414-105.412-36.96-186-6.124-22.742-11.922-45.27-15.876-63.334l436.836-0.666c35.29 0 64-28.71 64-64s-28.71-64-64-64z" />
<glyph unicode="&#xe610;" glyph-name="untitled37" d="M320 64v347.808c-80.91-22.456-100.592-33.808-186-33.808-73.888 0-134 60.112-134 134 0 73.886 60.112 134 134 134 103.972 0 151.95 38.722 205.71 115.090 1.596 2.268 3.162 4.578 4.71 6.91h-88.42v192h640v-192h-57.004c4.302-63.662 22.192-81.12 44.084-102.446 16.89-16.452 37.912-36.928 53.276-74.030 16.13-38.954 23.644-89.646 23.644-159.524v-64.98c0-61.938-51.268-112.326-114.286-112.326-10.47 0-20.876 1.424-30.9 4.19-20.996-19.71-49.002-30.964-78.814-30.964-10.468 0-20.876 1.424-30.898 4.19-20.998-19.71-49.006-30.964-78.816-30.964-18.036 0-35.1 4.142-50.286 11.488v-148.634c0-70.694-57.306-128-128-128s-128 57.306-128 128zM832 864c0 17.672-14.326 32-32 32s-32-14.328-32-32 14.326-32 32-32 32 14.328 32 32zM512 70v256h64v-6.532c0-26.646 22.558-48.326 50.286-48.326 17.37 0 33.29 8.468 42.586 22.654l16.244 24.788 25.958-14.298c7.562-4.166 16.182-6.368 24.926-6.368 17.37 0 33.288 8.468 42.582 22.652l16.244 24.79 25.96-14.298c7.562-4.166 16.182-6.368 24.928-6.368 27.726 0 50.286 21.68 50.286 48.326v64.98c0 126.562-38.206 152.088-65.95 179.112-28.32 27.588-59.984 58.49-66.728 150.888h-334.374c-8.264-15.756-17.264-30.7-27.090-44.658-67.858-96.392-139.546-147.342-267.858-147.342-31.982 0-58-30.020-58-62s26.018-60 58-60c85.66 0 105.412 12.414 186 36.96 22.742 6.124 45.27 11.922 63.334 15.876l0.666-436.836c0-35.29 28.71-64 64-64s64 28.71 64 64z" />
<glyph unicode="&#xe611;" glyph-name="untitled38" d="M1014.662 137.34c-0.004 0.004-0.008 0.008-0.012 0.010l-310.644 310.65 310.644 310.65c0.004 0.004 0.008 0.006 0.012 0.010 3.344 3.346 5.762 7.254 7.312 11.416 4.246 11.376 1.824 24.682-7.324 33.83l-146.746 146.746c-9.148 9.146-22.45 11.566-33.828 7.32-4.16-1.55-8.070-3.968-11.418-7.31 0-0.004-0.004-0.006-0.008-0.010l-310.648-310.652-310.648 310.65c-0.004 0.004-0.006 0.006-0.010 0.010-3.346 3.342-7.254 5.76-11.414 7.31-11.38 4.248-24.682 1.826-33.83-7.32l-146.748-146.748c-9.148-9.148-11.568-22.452-7.322-33.828 1.552-4.16 3.97-8.072 7.312-11.416 0.004-0.002 0.006-0.006 0.010-0.010l310.65-310.648-310.65-310.652c-0.002-0.004-0.006-0.006-0.008-0.010-3.342-3.346-5.76-7.254-7.314-11.414-4.248-11.376-1.826-24.682 7.322-33.83l146.748-146.746c9.15-9.148 22.452-11.568 33.83-7.322 4.16 1.552 8.070 3.97 11.416 7.312 0.002 0.004 0.006 0.006 0.010 0.010l310.648 310.65 310.648-310.65c0.004-0.002 0.008-0.006 0.012-0.008 3.348-3.344 7.254-5.762 11.414-7.314 11.378-4.246 24.684-1.826 33.828 7.322l146.746 146.748c9.148 9.148 11.57 22.454 7.324 33.83-1.552 4.16-3.97 8.068-7.314 11.414z" />
<glyph unicode="&#xe612;" glyph-name="untitled39" d="M0 544v-192c0-17.672 14.328-32 32-32h960c17.672 0 32 14.328 32 32v192c0 17.672-14.328 32-32 32h-960c-17.672 0-32-14.328-32-32z" />
<glyph unicode="&#xe613;" glyph-name="untitled40" d="M992 576h-352v352c0 17.672-14.328 32-32 32h-192c-17.672 0-32-14.328-32-32v-352h-352c-17.672 0-32-14.328-32-32v-192c0-17.672 14.328-32 32-32h352v-352c0-17.672 14.328-32 32-32h192c17.672 0 32 14.328 32 32v352h352c17.672 0 32 14.328 32 32v192c0 17.672-14.328 32-32 32z" />
<glyph unicode="&#xe614;" glyph-name="untitled41" d="M1024 448l-512 512v-320h-511.998l-0.002-384h512v-320z" />
<glyph unicode="&#xe615;" glyph-name="untitled42" d="M512-64l512 512h-320v511.998l-384 0.002v-512h-320z" />
<glyph unicode="&#xe616;" glyph-name="untitled43" d="M621.254 82.746l320 320c24.994 24.992 24.994 65.516 0 90.51l-320 320c-24.994 24.992-65.516 24.992-90.51 0-24.994-24.994-24.994-65.516 0-90.51l210.746-210.746h-613.49c-35.346 0-64-28.654-64-64s28.654-64 64-64h613.49l-210.746-210.746c-12.496-12.496-18.744-28.876-18.744-45.254s6.248-32.758 18.744-45.254c24.994-24.994 65.516-24.994 90.51 0z" />
<glyph unicode="&#xe617;" glyph-name="untitled44" d="M146.746 338.746l320-320c24.992-24.994 65.516-24.994 90.51 0l320 320c24.992 24.994 24.992 65.516 0 90.51-24.994 24.994-65.516 24.994-90.51 0l-210.746-210.746v613.49c0 35.346-28.654 64-64 64s-64-28.654-64-64v-613.49l-210.746 210.746c-12.496 12.496-28.876 18.744-45.254 18.744s-32.758-6.248-45.254-18.744c-24.994-24.994-24.994-65.516 0-90.51z" />
<glyph unicode="&#xe618;" glyph-name="untitled45" d="M512 960c-282.77 0-512-229.23-512-512s229.23-512 512-512 512 229.23 512 512-229.23 512-512 512zM512 32c-229.75 0-416 186.25-416 416s186.25 416 416 416 416-186.25 416-416-186.25-416-416-416zM813.256 493.254l-256.002 256c-24.992 24.994-65.514 24.994-90.508 0s-24.994-65.516 0-90.51l146.744-146.744h-357.49c-35.346 0-64-28.654-64-64s28.654-64 64-64h357.49l-146.746-146.744c-24.994-24.994-24.994-65.518 0-90.512 12.498-12.496 28.878-18.744 45.256-18.744s32.758 6.248 45.254 18.744l256.002 256c24.992 24.994 24.992 65.518 0 90.51z" />
<glyph unicode="&#xe619;" glyph-name="untitled46" d="M1024 448c0 282.77-229.23 512-512 512s-512-229.23-512-512 229.23-512 512-512 512 229.23 512 512zM96 448c0 229.75 186.25 416 416 416s416-186.25 416-416-186.25-416-416-416-416 186.25-416 416zM557.254 146.744l256 256.002c24.994 24.992 24.994 65.514 0 90.508s-65.516 24.994-90.51 0l-146.744-146.744v357.49c0 35.346-28.654 64-64 64s-64-28.654-64-64v-357.49l-146.744 146.746c-24.994 24.994-65.518 24.994-90.512 0-12.496-12.498-18.744-28.878-18.744-45.256s6.248-32.758 18.744-45.254l256-256.002c24.994-24.992 65.518-24.992 90.51 0z" />
<glyph unicode="&#xe61a;" glyph-name="untitled47" d="M0 640h1024v-64h-1024zM0 384h1024v-64h-1024zM0 128h1024v-64h-1024zM0 768h1024v-64h-1024zM0 512h1024v-64h-1024zM0 256h1024v-64h-1024z" />
<glyph unicode="&#xe61b;" glyph-name="untitled48" d="M0 896h1024v-128h-1024zM0 704h1024v-128h-1024zM0 512h1024v-128h-1024zM0 320h1024v-128h-1024zM0 128h1024v-128h-1024z" />
<glyph unicode="&#xe61c;" glyph-name="untitled49" d="M853.342 960h-682.656c-93.874 0-170.686-76.81-170.686-170.69v-682.622c0-93.938 76.812-170.688 170.686-170.688h682.656c93.876 0 170.658 76.75 170.658 170.69v682.62c0 93.88-76.782 170.69-170.658 170.69zM853.342 832c7.988 0 15.546-2.334 22.020-6.342l-363.362-300.404-363.354 300.4c6.478 4.010 14.044 6.346 22.040 6.346h682.656zM170.686 64c-1.924 0-3.82 0.146-5.684 0.408l225.626 312.966-29.256 29.254-233.372-233.37v611.138l384-464.396 384 464.394v-611.136l-233.372 233.37-29.254-29.254 225.628-312.968c-1.858-0.26-3.746-0.406-5.662-0.406h-682.654z" />
<glyph unicode="&#xe61d;" glyph-name="untitled50" d="M789.534 896c0 0-200.956 0-267.94 0-120.122 0-233.17-91.006-233.17-196.422 0-107.726 81.882-194.666 204.088-194.666 8.498 0 16.756 0.17 24.84 0.752-7.928-15.186-13.6-32.288-13.6-50.042 0-29.938 16.104-54.21 36.468-74.024-15.386 0-30.242-0.448-46.452-0.448-148.782 0.002-263.3-94.76-263.3-193.022 0-96.778 125.542-157.312 274.334-157.312 169.624 0 263.306 96.244 263.306 193.028 0 77.602-22.896 124.072-93.686 174.134-24.216 17.142-70.532 58.836-70.532 83.344 0 28.72 8.196 42.868 51.428 76.646 44.312 34.624 75.674 83.302 75.674 139.916 0 67.406-30.022 133.098-86.374 154.772h84.956l59.96 43.344zM695.948 240.542c2.126-8.972 3.284-18.208 3.284-27.628 0-78.2-50.39-139.31-194.974-139.31-102.842 0-177.116 65.104-177.116 143.3 0 76.642 92.126 140.444 194.964 139.332 24-0.254 46.368-4.116 66.668-10.69 55.828-38.828 95.876-60.76 107.174-105.004zM531.286 532.224c-69.038 2.064-134.636 77.226-146.552 167.86-11.916 90.666 34.37 160.042 103.388 157.99 69.008-2.074 134.636-74.814 146.558-165.458 11.906-90.66-34.39-162.458-103.394-160.392z" />
<glyph unicode="&#xe61e;" glyph-name="untitled51" d="M559.066 896c0 0-200.956 0-267.94 0-120.12 0-233.17-91.006-233.17-196.422 0-107.726 81.882-194.666 204.088-194.666 8.498 0 16.756 0.17 24.842 0.752-7.93-15.186-13.602-32.288-13.602-50.042 0-29.938 16.104-54.21 36.468-74.024-15.386 0-30.242-0.448-46.452-0.448-148.782 0.002-263.3-94.758-263.3-193.020 0-96.778 125.542-157.314 274.334-157.314 169.624 0 263.306 96.244 263.306 193.028 0 77.6-22.896 124.072-93.686 174.134-24.216 17.144-70.53 58.836-70.53 83.344 0 28.72 8.196 42.868 51.428 76.646 44.312 34.624 75.672 83.302 75.672 139.916 0 67.406-30.020 133.098-86.372 154.772h84.954l59.96 43.344zM465.48 240.542c2.126-8.972 3.284-18.206 3.284-27.628 0-78.2-50.392-139.31-194.974-139.31-102.842 0-177.116 65.104-177.116 143.3 0 76.642 92.126 140.444 194.964 139.332 24-0.254 46.368-4.116 66.67-10.69 55.826-38.826 95.876-60.762 107.172-105.004zM300.818 532.224c-69.038 2.064-134.636 77.226-146.552 167.86-11.916 90.666 34.37 160.042 103.388 157.99 69.010-2.074 134.638-74.814 146.558-165.458 11.906-90.66-34.39-162.458-103.394-160.392zM832 704v192h-64v-192h-192v-64h192v-192h64v192h192v64z" />
<glyph unicode="&#xe61f;" glyph-name="untitled52" d="M853.512 960h-684.27c-94.1 0-169.242-77.786-169.242-171.878v-680.352c0-96.422 75.142-171.77 169.242-171.77h684.268c94.096 0 170.49 75.348 170.49 171.77v680.352c0 94.092-76.394 171.878-170.488 171.878zM704 928v-160h-160v160h160zM480 928v-160h-160v160h160zM32 768v20.122c0 77.128 61.566 139.878 137.242 139.878h86.758v-160h-224zM768 320h-192v-192h-128v192h-192v128h192v192h128v-192h192v-128zM992 768h-224v160h85.512c76.364 0 138.488-62.75 138.488-139.878v-20.122z" />
<glyph unicode="&#xe620;" glyph-name="untitled53" d="M0.806 90.336c-0.244 2.532-0.452 5.070-0.584 7.63 0.13-2.56 0.34-5.098 0.584-7.63zM235.908 394.852c92.010-2.738 153.734 92.698 137.862 213.198-15.894 120.48-103.396 217.168-195.408 219.922-92.026 2.73-153.74-89.482-137.852-210 15.882-120.468 103.352-220.374 195.398-223.12zM1024 704v85.31c0 93.88-76.782 170.69-170.658 170.69h-682.656c-92.276 0-168.012-74.232-170.564-165.926 58.362 51.386 139.324 94.316 222.874 94.316 89.304 0 357.244 0 357.244 0l-79.948-67.618h-113.268c75.13-28.804 115.156-116.124 115.156-205.722 0-75.248-41.81-139.954-100.888-185.968-57.644-44.902-68.572-63.708-68.572-101.878 0-32.578 61.746-88 94.032-110.788 94.382-66.538 124.916-128.312 124.916-231.456 0-16.428-2.042-32.83-6.066-48.96h307.742c93.874 0 170.656 76.75 170.656 170.69v533.308h-192v-191.998h-64v192h-191.998v64h191.998v192h64v-192h192zM185.886 194.064c21.614 0 41.422 0.59 61.936 0.59-27.146 26.334-48.626 58.6-48.626 98.38 0 23.608 7.564 46.336 18.134 66.52-10.782-0.77-21.79-0.994-33.126-0.994-74.356 0-137.506 24.076-184.204 63.854v-67.242l0.006-201.73c53.44 25.374 116.888 40.622 185.88 40.622zM3.42 72.742c-1.112 5.458-1.966 11.006-2.542 16.634 0.574-5.628 1.43-11.176 2.542-16.634zM455.45 7.154c-15.058 58.806-68.454 87.964-142.888 139.568-27.072 8.732-56.894 13.874-88.894 14.208-89.618 0.964-173.108-34.942-220.216-88.372 15.92-77.706 85.034-136.558 167.234-136.558h286.444c1.816 11.128 2.696 22.632 2.696 34.432 0 12.534-1.534 24.792-4.376 36.722z" />
<glyph unicode="&#xe621;" glyph-name="untitled54" d="M437.006 141.838c0-75.068-46.39-134.392-177.758-139.176-76.984 43.786-141.49 106.952-186.908 182.866 23.69 58.496 97.692 103.046 182.316 102.114 24.022-0.252 46.41-4.114 66.744-10.7 55.908-38.866 101-63.152 112.324-107.448 2.114-8.964 3.282-18.206 3.282-27.656zM512 960c-147.94 0-281.196-62.77-374.666-163.098 36.934 20.452 80.538 32.638 126.902 32.638 67.068 0 256.438 0 256.438 0l-57.304-60.14h-67.31c47.496-27.212 72.752-83.248 72.752-145.012 0-56.692-31.416-102.38-75.78-137.058-43.28-33.802-51.492-47.966-51.492-76.734 0-24.542 51.722-61.098 75.5-78.936 82.818-62.112 99.578-101.184 99.578-178.87 0-78.726-68.936-157.104-185.866-183.742 56.348-21.338 117.426-33.048 181.248-33.048 282.77 0 512 229.23 512 512s-229.23 512-512 512zM768 576v-128h-64v128h-128v64h128v128h64v-128h128v-64h-128zM365.768 620.528c11.922-90.776-27.846-149.19-96.934-147.134-69.126 2.082-134.806 65.492-146.74 156.242-11.928 90.788 34.418 160.254 103.53 158.196 69.090-2.074 128.22-76.542 140.144-167.304zM220.886 317.932c-74.68 0-138.128-25.768-182.842-63.864-24.502 59.82-38.044 125.29-38.044 193.932 0 56.766 9.256 111.368 26.312 162.396 7.374-99.442 77.352-176.192 192.97-176.192 8.514 0 16.764 0.442 24.874 1.022-7.95-15.23-13.622-32.19-13.622-49.982 0-29.97 16.488-47.070 36.868-66.894-15.402 0-30.27-0.418-46.516-0.418z" />
<glyph unicode="&#xe622;" glyph-name="untitled55" d="M575.87-64h-191.87v512h-128v176.45l128 0.058-0.208 103.952c0 143.952 39.034 231.54 208.598 231.54h141.176v-176.484h-88.23c-66.032 0-69.206-24.656-69.206-70.684l-0.262-88.324h158.69l-18.704-176.45-139.854-0.058-0.13-512z" />
<glyph unicode="&#xe623;" glyph-name="untitled56" d="M853.344 960h-682.66c-93.872 0-170.684-76.814-170.684-170.688v-682.626c0-93.938 76.812-170.686 170.684-170.686l682.66 0.002c93.876 0 170.656 76.746 170.656 170.688v682.622c0 93.874-76.782 170.688-170.656 170.688zM870.592 448h-166.592v-448h-192v448h-92.526v146.564h92.526v95.186c0 129.342 55.792 206.25 207.87 206.25h175.244v-158.57h-143.13c-42.482 0.070-47.752-22.152-47.752-63.512l-0.232-79.354h192l-25.408-146.564z" />
<glyph unicode="&#xe624;" glyph-name="untitled57" d="M512 960c282.77 0 512-229.23 512-512 0-261.094-195.438-476.53-448-508.026v380.026h176l16 128h-192v64c0 35.346 28.654 64 64 64h128v128h-128c-106.040 0-192-85.96-192-192v-64h-96v-128h96v-380.026c-252.562 31.496-448 246.932-448 508.026 0 282.77 229.23 512 512 512z" />
<glyph unicode="&#xe625;" glyph-name="untitled58" d="M1024 765.582c-37.676-16.708-78.164-28.002-120.66-33.080 43.372 26 76.686 67.17 92.372 116.23-40.596-24.078-85.556-41.56-133.41-50.98-38.32 40.83-92.922 66.34-153.346 66.34-116.022 0-210.088-94.058-210.088-210.078 0-16.466 1.858-32.5 5.44-47.878-174.6 8.764-329.402 92.4-433.018 219.506-18.084-31.028-28.446-67.116-28.446-105.618 0-72.888 37.088-137.192 93.46-174.866-34.438 1.092-66.832 10.542-95.154 26.278-0.020-0.876-0.020-1.756-0.020-2.642 0-101.788 72.418-186.696 168.522-206-17.626-4.8-36.188-7.372-55.348-7.372-13.538 0-26.698 1.32-39.528 3.772 26.736-83.46 104.32-144.206 196.252-145.896-71.9-56.35-162.486-89.934-260.916-89.934-16.958 0-33.68 0.994-50.116 2.94 92.972-59.61 203.402-94.394 322.042-94.394 386.422 0 597.736 320.124 597.736 597.744 0 9.108-0.206 18.168-0.61 27.18 41.056 29.62 76.672 66.62 104.836 108.748z" />
<glyph unicode="&#xe626;" glyph-name="untitled59" d="M853.342 960h-682.656c-93.874 0-170.686-76.81-170.686-170.69v-682.622c0-93.938 76.812-170.688 170.686-170.688h682.656c93.876 0 170.658 76.75 170.658 170.69v682.62c0 93.88-76.782 170.69-170.658 170.69zM838.052 618.166c0.328-7.342 0.49-14.728 0.49-22.148 0-226.214-169.216-487.068-478.658-487.068-95.004 0-183.434 28.348-257.886 76.918 13.16-1.588 26.552-2.394 40.13-2.394 78.822 0 151.358 27.37 208.934 73.282-73.616 1.38-135.744 50.876-157.154 118.882 10.274-2 20.812-3.074 31.652-3.074 15.344 0 30.206 2.096 44.32 6.008-76.96 15.732-134.95 84.916-134.95 167.856 0 0.722 0 1.438 0.016 2.152 22.68-12.82 48.624-20.52 76.2-21.41-45.142 30.698-74.842 83.092-74.842 142.488 0 31.37 8.294 60.778 22.778 86.058 82.974-103.57 206.936-171.72 346.754-178.862-2.87 12.532-4.358 25.596-4.358 39.014 0 94.538 75.326 171.18 168.23 171.18 48.39 0 92.118-20.786 122.802-54.058 38.32 7.676 74.324 21.92 106.832 41.542-12.562-39.976-39.234-73.522-73.966-94.71 34.026 4.138 66.452 13.34 96.62 26.954-22.546-34.324-51.070-64.476-83.944-88.61z" />
<glyph unicode="&#xe627;" glyph-name="untitled60" d="M512 960c-282.77 0-512-229.23-512-512s229.23-512 512-512 512 229.23 512 512-229.23 512-512 512zM806.242 598.912c0.292-6.508 0.442-13.056 0.442-19.638 0-200.622-152.708-431.964-431.958-431.964-85.736 0-165.536 25.136-232.726 68.214 11.876-1.408 23.962-2.126 36.216-2.126 71.13 0 136.59 24.276 188.55 64.994-66.434 1.22-122.5 45.122-141.824 105.432 9.274-1.768 18.784-2.722 28.566-2.722 13.846 0 27.258 1.856 39.998 5.324-69.452 13.952-121.786 75.312-121.786 148.868 0 0.64 0 1.278 0.016 1.91 20.47-11.37 43.878-18.2 68.764-18.988-40.74 27.222-67.54 73.692-67.54 126.368 0 27.822 7.488 53.904 20.556 76.324 74.878-91.854 186.748-152.292 312.924-158.628-2.588 11.118-3.93 22.702-3.93 34.604 0 83.84 67.98 151.812 151.818 151.812 43.666 0 83.124-18.436 110.818-47.94 34.58 6.808 67.074 19.442 96.412 36.84-11.336-35.454-35.41-65.206-66.752-83.994 30.71 3.668 59.968 11.832 87.194 23.904-20.35-30.448-46.090-57.186-75.758-78.594z" />
<glyph unicode="&#xe628;" glyph-name="untitled61" d="M136.294 209.070c-75.196 0-136.292-61.334-136.292-136.076 0-75.154 61.1-135.802 136.292-135.802 75.466 0 136.494 60.648 136.494 135.802-0.002 74.742-61.024 136.076-136.494 136.076zM0.156 612.070v-196.258c127.784 0 247.958-49.972 338.458-140.512 90.384-90.318 140.282-211.036 140.282-339.3h197.122c-0.002 372.82-303.282 676.070-675.862 676.070zM0.388 960v-196.356c455.782 0 826.756-371.334 826.756-827.644h196.856c0 564.47-459.254 1024-1023.612 1024z" />
<glyph unicode="&#xe629;" glyph-name="untitled62" d="M853.34 960h-682.654c-93.876 0-170.686-76.812-170.686-170.688v-682.628c0-93.934 76.812-170.684 170.688-170.684h682.652c93.876 0 170.66 76.748 170.66 170.684v682.628c0 93.876-76.784 170.688-170.66 170.688zM278.944 128.752c-47.97 0-86.944 38.692-86.944 86.628 0 47.684 38.972 86.812 86.944 86.812 48.158 0 87.060-39.128 87.060-86.812-0.002-47.936-38.904-86.628-87.060-86.628zM497.468 128.004c0 81.81-31.808 158.818-89.46 216.444-57.714 57.75-134.376 89.626-215.904 89.626v125.186c237.652 0 431.126-193.442 431.126-431.254l-125.762-0.002zM719.628 128.004c0 291.062-236.658 527.94-527.376 527.94v125.248c360.002 0 652.946-293.124 652.946-653.192l-125.57 0.004z" />
<glyph unicode="&#xe62a;" glyph-name="untitled63" d="M512 960c-282.77 0-512-229.23-512-512s229.23-512 512-512 512 229.23 512 512-229.23 512-512 512zM320 192c-35.346 0-64 28.654-64 64s28.654 64 64 64 64-28.654 64-64-28.654-64-64-64zM496 192c0 132.336-107.664 240-240 240v96c185.272 0 336-150.728 336-336h-96zM688 192c0 115.39-44.936 223.876-126.53 305.47s-190.078 126.53-305.47 126.53v96c141.034 0 273.626-54.922 373.354-154.648 99.724-99.726 154.646-232.318 154.646-373.352h-96z" />
<glyph unicode="&#xe62b;" glyph-name="untitled64" d="M0 651.63l41.594-54.544c0 0 85.77 67.608 114.36 33.802 28.588-33.802 137.736-441.956 174.17-517.246 31.8-66.030 119.518-153.32 215.714-90.982 96.136 62.34 415.84 335.286 473.066 657.616 57.18 322.226-384.72 254.726-431.53-26.010 116.99 70.236 179.436-28.538 119.57-140.372-59.758-111.724-114.36-184.592-142.952-184.592-28.538 0-50.49 74.768-83.188 205.446-33.798 135.102-33.592 378.46-174.116 350.87-132.518-26.012-306.688-233.988-306.688-233.988z" />
<glyph unicode="&#xe62c;" glyph-name="untitled65" d="M853.31 960h-682.62c-93.878 0-170.69-76.816-170.69-170.692v-682.62c0-93.938 76.812-170.688 170.69-170.688h682.62c93.878 0 170.69 76.75 170.69 170.69v682.618c0 93.876-76.812 170.692-170.69 170.692zM812.868 521.874c-33.958-191.296-223.708-353.296-280.78-390.31-57.088-37.006-109.154 14.822-128.038 53.994-21.616 44.708-86.41 286.94-103.368 307.020-16.964 20.038-67.876-20.080-67.876-20.080l-24.692 32.376c0 0 103.382 123.448 182.040 138.878 83.404 16.366 83.28-128.066 103.34-208.242 19.4-77.564 32.44-121.952 49.376-121.952 16.97 0 49.382 43.262 84.852 109.57 35.536 66.376-1.538 125.010-70.972 83.292 27.786 166.652 290.062 206.72 256.118 15.454z" />
<glyph unicode="&#xe62d;" glyph-name="untitled66" d="M512 960c-282.77 0-512-229.23-512-512s229.23-512 512-512 512 229.23 512 512-229.23 512-512 512zM812.868 521.874c-33.958-191.296-223.708-353.296-280.78-390.31-57.088-37.006-109.154 14.822-128.038 53.994-21.616 44.708-86.41 286.94-103.368 307.020-16.964 20.038-67.876-20.080-67.876-20.080l-24.692 32.376c0 0 103.382 123.448 182.040 138.878 83.404 16.366 83.28-128.066 103.34-208.242 19.4-77.564 32.44-121.952 49.376-121.952 16.97 0 49.382 43.262 84.852 109.57 35.536 66.376-1.538 125.010-70.972 83.292 27.786 166.652 290.062 206.72 256.118 15.454z" />
<glyph unicode="&#xe62e;" glyph-name="untitled67" d="M0 416c0 123.712 100.288 224 224 224s224-100.288 224-224c0-123.712-100.288-224-224-224s-224 100.288-224 224zM576 416c0 123.712 100.288 224 224 224s224-100.288 224-224c0-123.712-100.288-224-224-224s-224 100.288-224 224z" />
<glyph unicode="&#xe62f;" glyph-name="untitled68" d="M800 544c-70.58 0-128-57.42-128-128s57.42-128 128-128c70.58 0 128 57.42 128 128s-57.42 128-128 128zM800 640v0c123.71 0 224-100.288 224-224s-100.29-224-224-224c-123.71 0-224 100.29-224 224s100.29 224 224 224zM0 416c0 123.712 100.288 224 224 224s224-100.288 224-224c0-123.712-100.288-224-224-224s-224 100.288-224 224z" />
<glyph unicode="&#xe630;" glyph-name="untitled69" d="M853.376 960h-682.688c-93.876 0-170.688-76.812-170.688-170.682v-682.626c0-93.942 76.812-170.692 170.688-170.692h682.682c93.874 0 170.63 76.754 170.63 170.696v682.622c0 93.87-76.756 170.682-170.624 170.682zM288 288c-88.366 0-160 71.634-160 160s71.634 160 160 160 160-71.634 160-160c0-88.366-71.634-160-160-160zM736 288c-88.368 0-160 71.634-160 160s71.632 160 160 160 160-71.634 160-160c0-88.366-71.632-160-160-160z" />
<glyph unicode="&#xe631;" glyph-name="untitled70" d="M512 960c-282.77 0-512-230.796-512-515.5s229.23-515.5 512-515.5 512 230.796 512 515.5-229.23 515.5-512 515.5zM288 288c-88.366 0-160 71.634-160 160s71.634 160 160 160 160-71.634 160-160c0-88.366-71.634-160-160-160zM736 288c-88.368 0-160 71.634-160 160s71.632 160 160 160 160-71.634 160-160c0-88.366-71.632-160-160-160z" />
<glyph unicode="&#xe632;" glyph-name="untitled71" d="M561.856 553c-39.042 2.282-84.082-0.048-136.25-8.95l120.334-216.888 478.060 131.266c-5.154 12.26-12.686 24.226-22.662 35.798-49.474 57.278-156.74 108.374-273.604 131.418l0.002 0.026c-114.644 26.874-238.802 25.744-365.96 6.548-4.584-0.688-9.144-1.422-13.68-2.184l-42.272 78.292c-41.142-5.492-79.808-14.050-115.606-25.474l40.26-84.198c-65.76-25.476-119.722-61.76-158.658-105.432-64.212-73.064-89.59-164.908-58.746-254.352 6.204-18.042 14.588-35.16 24.936-51.196l478.068 131.298-132.75 245.848c4.558 0.88 9.196 1.768 13.928 2.624 214.682 38.298 332.102-20.864 396.416-83.83l-163.558-39.648-68.258 109.034zM174.722 333.61c-14.758 67.352-3.012 142.526 90.404 192.594l73.138-152.948-163.542-39.646z" />
<glyph unicode="&#xe633;" glyph-name="untitled72" d="M852 960h-680c-94.6 0-172-77.4-172-172v-680c0-94.6 77.4-172 172-172h680c94.6 0 172 77.4 172 172v680c0 94.6-77.4 172-172 172zM960 192h-384v236c0 0 70.334-1 108-40v-68h154.41c-11.82 37.882-37.068 75.112-73.128 106.664-61.98 54.23-163.194 81.336-253.282 81.336v-316h-448v96c0 43.396 14.65 86.538 42.364 124.76 24.594 33.918 58.864 63.832 101.86 88.914 50.432 29.418 110.562 50.708 175.776 62.778v139.548h128v-128c147 0 221.612-26.396 303.778-74.326 42.996-25.082 77.266-54.996 101.86-88.914 27.714-38.222 42.362-81.364 42.362-124.76v-96zM199.59 320c11.82 37.882 37.070 75.112 73.128 106.664 31.54 27.596 69.62 49.188 111.282 63.756v-170.42h-184.41z" />
<glyph unicode="&#xe634;" glyph-name="untitled73" d="M0 403.59c0-46.398 4.34-88.38 13.022-125.934 8.678-37.554 20.696-70.184 36.052-97.892s34.884-52.078 58.586-73.108c23.7-21.032 49.406-38.224 77.112-51.576s59.336-24.198 94.888-32.546c35.552-8.346 71.856-14.188 108.91-17.528 37.054-3.338 77.78-5.006 122.178-5.006 44.732 0 85.628 1.668 122.68 5.006 37.054 3.34 73.442 9.184 109.16 17.528s67.512 19.192 95.388 32.546c27.876 13.354 53.746 30.544 77.616 51.576 23.87 21.030 43.566 45.404 59.086 73.108s27.622 60.336 36.302 97.892c8.68 37.556 13.020 79.536 13.020 125.934 0 82.788-27.708 154.394-83.118 214.816 3.004 8.012 5.758 17.108 8.262 27.29s4.84 24.702 7.010 43.564c2.17 18.862 1.336 40.642-2.504 65.346-3.838 24.704-10.932 49.906-21.284 75.612l-7.51 1.502c-5.342 1-14.106 0.75-26.29-0.752s-26.372-4.506-42.562-9.014c-16.19-4.506-37.054-13.186-62.592-26.038s-52.494-28.958-80.87-48.32c-48.736 13.352-115.668 20.030-200.792 20.030-84.792 0-151.556-6.678-200.294-20.030-28.376 19.362-55.5 35.468-81.37 48.32s-46.484 21.532-61.84 26.038c-15.354 4.508-29.71 7.428-43.062 8.764-13.354 1.336-21.784 1.752-25.288 1.252s-6.26-1.086-8.262-1.752c-10.348-25.706-17.442-50.906-21.28-75.612-3.838-24.704-4.674-46.486-2.504-65.346s4.508-33.382 7.010-43.564c2.504-10.182 5.258-19.278 8.262-27.29-55.414-60.422-83.122-132.026-83.122-214.816zM125.684 277.906c0 48.070 21.866 92.136 65.596 132.194 13.018 12.020 28.208 21.114 45.566 27.292s36.97 9.68 58.836 10.516c21.866 0.834 42.812 0.668 62.842-0.502s44.732-2.754 74.108-4.756c29.376-2.004 54.748-3.004 76.112-3.004s46.736 1 76.112 3.004c29.378 2.002 54.078 3.588 74.11 4.756 20.030 1.17 40.974 1.336 62.842 0.502s41.476-4.34 58.838-10.516c17.356-6.176 32.544-15.27 45.564-27.292 43.73-39.394 65.598-83.456 65.598-132.194 0-28.712-3.59-54.162-10.768-76.364s-16.358-40.81-27.542-55.83c-11.184-15.020-26.704-27.79-46.568-38.306-19.862-10.516-39.222-18.61-58.084-24.288-18.862-5.674-43.066-10.098-72.608-13.27-29.546-3.172-55.916-5.092-79.118-5.758s-52.66-1.002-88.378-1.002c-35.718 0-65.178 0.334-88.378 1.002s-49.574 2.586-79.116 5.758c-29.542 3.172-53.744 7.596-72.606 13.27-18.86 5.678-38.222 13.774-58.084 24.288s-35.386 23.282-46.568 38.306c-11.182 15.022-20.364 33.63-27.54 55.83-7.178 22.202-10.766 47.656-10.766 76.364zM640 288c0 53.020 28.654 96 64 96s64-42.98 64-96c0-53.020-28.654-96-64-96s-64 42.98-64 96zM256 288c0 53.020 28.654 96 64 96s64-42.98 64-96c0-53.020-28.654-96-64-96s-64 42.98-64 96z" />
<glyph unicode="&#xe635;" glyph-name="untitled74" d="M512 128.108c-19.154 0-38.308 9.916-58.142 29.75-7.81 7.81-7.81 20.474 0 28.286 7.81 7.808 20.474 7.808 28.286 0 12.206-12.21 21.972-18.144 29.856-18.144 7.882 0 17.65 5.934 29.858 18.142 7.812 7.808 20.472 7.808 28.286 0 7.81-7.81 7.81-20.474 0-28.286-19.836-19.832-38.99-29.748-58.144-29.748zM0 434.508c0-49.892 4.266-95.122 12.8-135.682s20.534-75.74 36-105.532c15.466-29.792 35.022-55.904 58.666-78.34s49.332-40.92 77.066-55.458c27.734-14.536 59.466-26.296 95.2-35.266 35.732-8.974 72.088-15.256 109.066-18.846s77.69-5.384 122.134-5.384c44.444 0 85.242 1.79 122.398 5.38s73.602 9.872 109.332 18.846c35.734 8.974 67.558 20.73 95.468 35.266 27.91 14.538 53.778 33.026 77.598 55.458 23.824 22.436 43.47 48.548 58.934 78.34 15.47 29.794 27.56 64.974 36.27 105.532 8.71 40.56 13.066 85.788 13.066 135.68 0 89.38-27.736 166.372-83.2 230.982 3.2 8.616 5.954 18.486 8.266 29.614 2.308 11.128 4.532 26.832 6.664 47.112 2.138 20.282 1.336 43.704-2.398 70.264-3.734 26.564-10.754 53.664-21.066 81.302l-8 1.618c-5.332 1.076-14.042 0.718-26.132-1.080-12.086-1.794-26.222-5.022-42.398-9.69-16.176-4.664-37.066-13.908-62.668-27.728-25.598-13.818-52.62-31.318-81.066-52.496-48.356 14.718-115.020 30.116-200 30.116-84.976 0-151.822-15.396-200.53-30.114-28.446 21.18-55.556 38.588-81.334 52.228-25.78 13.642-46.402 22.974-61.868 27.998s-29.778 8.256-42.934 9.69c-13.156 1.436-21.602 1.886-25.334 1.346s-6.488-1.166-8.266-1.884c-10.314-27.64-17.424-54.74-21.336-81.304-3.91-26.56-4.8-49.892-2.666-69.992 2.134-20.102 4.444-35.898 6.934-47.382s5.334-21.358 8.534-29.614c-55.466-64.25-83.2-141.242-83.2-230.98zM136.536 320.596c0 58.022 21.332 110.638 64 157.856 12.8 14.406 27.646 25.312 44.534 32.712 16.89 7.402 36.088 11.606 57.6 12.606s42.044 0.8 61.6-0.6c19.556-1.402 43.734-3.302 72.534-5.702 28.798-2.404 53.688-3.602 74.666-3.602 20.976 0 45.868 1.2 74.664 3.602 28.806 2.4 52.982 4.3 72.536 5.702 19.56 1.4 40.090 1.6 61.602 0.6s40.802-5.204 57.868-12.606c17.066-7.4 32-18.306 44.8-32.712 42.664-47.218 64-99.834 64-157.856 0-34.012-3.554-64.324-10.668-90.934-7.11-26.612-16.090-48.916-26.934-66.922s-26.048-33.218-45.598-45.62c-19.558-12.406-38.492-22.010-56.8-28.81-18.312-6.8-41.958-12.104-70.934-15.906-28.982-3.796-54.934-6.102-77.872-6.9-22.934-0.8-51.82-1.2-86.664-1.2s-63.644 0.402-86.4 1.2c-22.756 0.798-48.622 3.104-77.6 6.9-28.978 3.802-52.622 9.104-70.934 15.906s-37.244 16.404-56.8 28.81c-19.556 12.404-34.756 27.612-45.6 45.62-10.846 18.006-19.824 40.31-26.934 66.922-7.11 26.61-10.666 56.922-10.666 90.934zM256 351.996c0 53.020 28.654 96 64 96s64-42.98 64-96c0-53.020-28.654-96-64-96s-64 42.98-64 96zM640 351.996c0 53.020 28.654 96 64 96s64-42.98 64-96c0-53.020-28.654-96-64-96s-64 42.98-64 96z" />
<glyph unicode="&#xe636;" glyph-name="untitled75" d="M512 960c-282.77 0-512-229.23-512-512s229.23-512 512-512 512 229.23 512 512-229.23 512-512 512zM816.056 143.944c-39.518-39.516-85.512-70.532-136.708-92.186-13.006-5.5-26.214-10.328-39.6-14.492v76.734c0 40.334-13.834 70-41.5 89 17.334 1.666 33.25 4 47.75 7s29.834 7.334 46 13 30.666 12.416 43.5 20.25 25.166 18 37 30.5 21.75 26.666 29.75 42.5 14.334 34.834 19 57 7 46.584 7 73.25c0 51.666-16.834 95.666-50.5 132 15.334 40 13.666 83.5-5 130.5l-12.5 1.5c-8.666 1-24.25-2.666-46.75-11s-47.75-22-75.75-41c-39.666 11-80.834 16.5-123.5 16.5-43 0-84-5.5-123-16.5-17.666 12-34.416 21.916-50.25 29.75s-28.5 13.166-38 16-18.334 4.584-26.5 5.25-13.416 0.834-15.75 0.5-4-0.666-5-1c-18.666-47.334-20.334-90.834-5-130.5-33.666-36.334-50.5-80.334-50.5-132 0-26.666 2.334-51.084 7-73.25s11-41.166 19-57 17.916-30 29.75-42.5 24.166-22.666 37-30.5 27.334-14.584 43.5-20.25 31.5-10 46-13 30.416-5.334 47.75-7c-27.334-18.666-41-48.334-41-89v-78.23c-15.098 4.494-29.98 9.804-44.6 15.988-51.194 21.654-97.188 52.67-136.706 92.186-39.516 39.518-70.534 85.512-92.186 136.708-22.398 52.958-33.756 109.262-33.756 167.348s11.358 114.39 33.758 167.35c21.654 51.194 52.67 97.188 92.186 136.706s85.512 70.534 136.706 92.186c52.96 22.4 109.264 33.758 167.35 33.758s114.39-11.358 167.35-33.758c51.196-21.654 97.19-52.67 136.708-92.186 39.516-39.516 70.532-85.512 92.186-136.706 22.398-52.96 33.756-109.264 33.756-167.35s-11.358-114.39-33.758-167.35c-21.654-51.194-52.67-97.19-92.186-136.706z" />
<glyph unicode="&#xe637;" glyph-name="untitled76" d="M235.278 711.28c-50.792 0-94.484-16.806-131.084-50.416-38.086-35.852-57.14-80.66-57.14-134.436 0-35.852 10.376-69.462 31.294-100.832 18.674-29.126 38.18-47.806 63.778-56.024v-2.242c-25.598-10.448-36.966-36.59-36.966-78.418 0-32.124 11.372-56.022 36.966-71.708v-2.242c-70.654-23.146-102.992-66.094-102.992-128.83 0-54.534 23.748-94.488 70.066-119.878 36.59-20.172 83.578-30.254 140.346-30.254 138.17 0 207.406 57.882 207.406 173.664 0 72.446-53.322 116.882-160.128 133.316-24.646 3.726-43.286 12.696-55.982 26.89-9.708 9.708-14.542 19.418-14.542 29.126 0 27.632 14.958 43.696 44.82 48.176 45.558 6.714 82.728 27.824 111.486 63.296 28.75 35.48 43.13 77.118 43.13 124.916 0 14.938-4.518 30.996-10.488 48.172 19.418 4.488 33.050 8.594 43.292 12.332v115.392c-45.054-17.928-86.99-26.884-122.842-26.884-31.374 17.922-63.824 26.884-100.42 26.884zM247.602 152.23c62.744 0 94.104-19.042 94.104-57.14 0-40.336-28.754-60.492-86.264-60.492-65.724 0-98.586 19.422-98.586 58.254-0.002 39.59 30.244 59.378 90.746 59.378zM239.76 448c-47.054 0-70.586 25.764-70.586 77.308 0 55.262 23.532 82.906 70.586 82.906 22.402 0 39.958-8.596 52.652-25.768 10.458-15.69 15.69-34.36 15.69-56.022 0-52.278-22.786-78.424-68.342-78.424zM580.384 960c-21.656 0-40.14-8.214-55.454-24.648-15.314-16.436-22.97-36.216-22.97-59.376 0-22.41 7.658-41.82 22.97-58.258 15.308-16.434 33.792-24.64 55.454-24.64 20.91 0 39.028 8.208 54.34 24.64 15.312 16.438 22.96 35.848 22.96 58.258 0 23.16-7.648 42.944-22.96 59.376-15.318 16.434-33.43 24.648-54.34 24.648zM643.13 704.002h-126.606c1.496-14.336-0.64-36.042-0.64-71.14v-348.432c0-35.856 2.136-64.774 0.64-76.036h126.606c-1.5 16.376-5.394 44.668-5.394 82.758v343.946c-0.006 32.864 3.894 54.568 5.394 68.904zM922.336 315.8c-32.872 0-49.082 25.028-49.082 75.066v206.64h49.864c8.96 0 17.032 0.492 27.118-0.246 10.086-0.748 14.152-0.25 19.278-0.25v106.99h-96.258v47.616c0 17.922 2.816 34.302 5.054 44.542h-129.958c2.242-10.24 2.028-25.876 2.028-46.79v-45.368h-56.32v-106.988c15.364 2.24 29.090 3.356 38.796 3.356l17.524-1.118v-202.786c0-62.742 7.958-108.672 23.636-137.8 20.922-38.84 57.622-58.258 112.136-58.258 38.848 0 73.118 7.464 98.714 22.41v112.032c-20.474-12.7-39.382-19.048-62.53-19.048z" />
<glyph unicode="&#xe638;" glyph-name="untitled77" d="M263.472 200.632c0-27.052 22.894-40.582 68.668-40.582 40.064 0 60.088 14.042 60.088 42.134 0 26.538-21.846 39.796-65.544 39.796-42.146 0.004-63.212-13.776-63.212-41.348zM853.348 960h-682.66c-93.876 0-170.688-76.81-170.688-170.688v-682.626c0-93.936 76.812-170.686 170.688-170.686h682.66c93.868 0 170.652 76.75 170.652 170.688v682.624c0 93.878-76.782 170.688-170.652 170.688zM475.728 551.012c-7.284-2.604-17.688-5.458-31.212-8.586 4.16-11.966 6.246-23.152 6.246-33.554 0-33.292-10.018-62.298-30.044-87.012-20.030-24.708-45.912-39.406-77.646-44.086-20.804-3.126-31.208-14.312-31.208-33.558 0-6.762 3.378-13.53 10.144-20.29 8.844-9.886 21.848-16.132 39.018-18.734 74.39-11.442 111.586-42.394 111.586-92.854 0-80.642-48.124-120.962-144.362-120.962-39.542 0-72.056 7.026-97.544 21.070-32.258 17.688-48.376 45.52-48.376 83.5 0 43.704 24.192 73.616 72.564 89.738v1.56c-17.684 10.924-26.526 27.57-26.526 49.944 0 29.132 8.324 47.344 24.968 54.622v1.562c-16.646 5.724-31.474 18.732-44.48 39.024-14.564 21.852-21.85 45.26-21.85 70.23 0 37.458 13.27 68.67 39.792 93.64 25.496 23.414 55.928 35.116 91.306 35.116 25.494 0 49.158-6.238 71.010-18.722 24.97 0 53.842 6.24 86.626 18.722l-0.012-80.37zM602.178 281.006h-88.186c1.042 10.402 1.558 28.084 1.558 53.064v242.692c0 24.454-0.522 41.364-1.558 50.718h88.186c-1.042-9.884-1.562-26.27-1.562-49.164v-239.564c0-26.534 0.522-45.784 1.562-57.746zM596.318 705.518c-10.664-11.444-23.282-17.162-37.846-17.162-15.086 0-27.958 5.718-38.626 17.162-10.666 11.452-16.002 24.972-16.002 40.578 0 16.134 5.336 29.912 16.002 41.366 10.666 11.442 23.54 17.168 38.626 17.168 14.564 0 27.184-5.726 37.846-17.168 10.666-11.456 15.998-25.23 15.998-41.366 0-15.606-5.332-29.128-15.998-40.578zM841.69 291.152c-19.254-10.41-42.406-15.606-69.458-15.606-37.97 0-64.248 13.52-78.81 40.574-10.93 20.29-16.386 52.28-16.386 95.98v139.684h0.778v1.562l-11.706 0.782c-6.764 0-15.612-0.782-26.534-2.342v75.694h38.234v30.432c0 14.57-0.778 26.28-2.34 35.12h90.518c-1.55-9.88-2.336-21.066-2.336-33.552v-31.998h67.886v-75.692c-2.598 0-7.41 0.258-14.436 0.778-7.024 0.522-13.656 0.786-19.898 0.786h-33.554v-145.144c0-34.864 11.45-52.29 34.334-52.29 16.126 0 30.696 4.418 43.708 13.264v-78.032zM321.216 559.594c-32.776 0-49.164-19.254-49.164-57.746 0-35.902 16.388-53.848 49.164-53.848 31.736 0 47.602 18.208 47.602 54.626 0 15.090-3.64 28.094-10.922 39.022-8.846 11.962-21.074 17.946-36.68 17.946z" />
<glyph unicode="&#xe639;" glyph-name="untitled78" d="M576.032 512l-0.002-234.184c0-59.418-0.77-93.656 5.53-110.5 6.25-16.754 21.918-34.146 38.99-44.202 22.684-13.588 48.542-20.376 77.708-20.376 51.854 0 82.478 6.848 133.742 40.54v-153.944c-43.7-20.552-81.866-32.594-117.324-40.922-35.5-8.242-73.86-12.406-115.064-12.406-46.828 0-74.456 5.886-110.41 17.656-35.958 11.868-66.66 28.806-92.020 50.54-25.45 21.922-43.022 45.208-52.848 69.832-9.826 24.636-14.716 60.414-14.716 107.244v359.1h-137.426v145.006c40.208 13.042 85.164 31.788 113.78 56.152 28.754 24.45 51.766 53.706 69.106 87.944 17.392 34.146 29.348 77.712 35.872 130.516h165.084l-0.002-255.996h255.968v-192h-255.968z" />
<glyph unicode="&#xe63a;" glyph-name="untitled79" d="M853.38 960h-682.692c-93.878 0-170.686-76.814-170.686-170.686v-682.626c0-93.938 76.808-170.688 170.686-170.688h682.692c93.87 0 170.62 76.75 170.62 170.688v682.628c-0.008 93.87-76.758 170.684-170.62 170.684zM731.716 135.312c-30.152-14.188-57.528-24.188-82-29.938-24.496-5.69-50.96-8.558-79.402-8.558-32.312 0-51.376 4.058-76.188 12.188-24.808 8.188-46 19.872-63.5 34.872-17.558 15.128-29.686 31.198-36.466 48.194-6.784 17.004-10.156 41.692-10.156 74.004v247.802h-95.996v100.066c27.744 9 59.936 21.934 79.684 38.75 19.84 16.872 35.718 37.058 47.684 60.684 12.004 23.566 20.25 53.626 24.752 90.066h100.5v-163.442h163.372v-126.126h-163.378v-181.188c0-41-0.528-64.626 3.816-76.25 4.312-11.56 15.126-23.56 26.902-30.5 15.656-9.376 33.504-14.060 53.626-14.060 35.786 0 71.378 11.626 106.75 34.876v-111.44z" />
<glyph unicode="&#xe63b;" glyph-name="untitled80" d="M975.31 382.062c2.812 20.8 4.43 41.946 4.43 63.472 0 258.31-210.542 467.744-470.206 467.744-25.808 0-51.11-2.12-75.732-6.16-44.144 28.768-96.684 45.534-153.224 45.534-155.046 0-280.578-125.616-280.578-280.612 0-56.396 16.598-108.788 45.18-152.778-3.85-24.034-5.818-48.646-5.818-73.718 0-258.352 210.434-467.764 470.17-467.764 29.314 0 57.854 2.854 85.592 7.866 43.1-26.738 93.868-42.296 148.292-42.296 155.004-0.002 280.584 125.646 280.584 280.626-0.006 58.586-17.92 113.056-48.69 158.086zM553.48 100.808c-149.41-7.784-219.328 25.274-283.378 85.382-71.53 67.134-42.796 143.708 15.48 147.602 58.244 3.888 93.214-66.026 124.3-85.472 31.048-19.376 149.188-63.52 211.588 7.816 67.952 77.656-45.188 117.84-128.118 130.004-118.406 17.532-267.9 81.584-256.27 207.814 11.632 126.148 107.164 190.828 207.7 199.952 128.154 11.634 211.582-19.414 277.57-75.72 76.3-65.058 35.016-137.788-13.598-143.64-48.424-5.818-102.808 107.008-209.582 108.704-110.054 1.728-184.434-114.522-48.572-147.568 135.932-33.010 281.5-46.572 333.922-170.834 52.458-124.274-81.508-256.25-231.042-264.040z" />
<glyph unicode="&#xe63c;" glyph-name="untitled81" d="M852 960h-680c-94.6 0-172-77.4-172-172v-680c0-94.6 77.4-172 172-172h680c94.6 0 172 77.4 172 172v680c0 94.6-77.4 172-172 172zM384 128h-128v448h128v-448zM320 640c-35.346 0-64 28.654-64 64s28.654 64 64 64 64-28.654 64-64-28.654-64-64-64zM832 128h-128v256c0 35.346-28.654 64-64 64s-64-28.654-64-64v-256h-128v448h128v-79.472c26.398 36.264 66.752 79.472 112 79.472 79.53 0 144-71.634 144-160v-288z" />
<glyph unicode="&#xe63d;" glyph-name="untitled82" d="M512 960c-282.77 0-512-229.23-512-512s229.226-512 512-512c282.77 0 512 229.23 512 512s-229.23 512-512 512zM561.644 275.882c-46.52 3.614-66.042 26.656-102.504 48.808-20.060-105.176-44.564-206.016-117.14-258.686-22.404 158.968 32.894 278.364 58.57 405.114-43.784 73.706 5.27 222.034 97.62 185.474 113.626-44.948-98.4-274.008 43.932-302.616 148.62-29.868 209.288 257.858 117.142 351.424-133.158 135.106-387.598 3.080-356.31-190.356 7.614-47.292 56.472-61.638 19.524-126.902-85.22 18.892-110.65 86.102-107.376 175.712 5.268 146.674 131.784 249.364 258.686 263.566 160.484 17.964 311.106-58.908 331.906-209.876 23.412-170.39-72.448-354.93-244.050-341.662z" />
<glyph unicode="&#xe63e;" glyph-name="untitled83" d="M853.35 960h-682.702c-94.25 0-170.648-76.42-170.648-170.686v-682.63c0-94.266 76.398-170.684 170.648-170.684h682.702c94.25 0 170.65 76.418 170.65 170.684v682.63c0 94.266-76.4 170.686-170.65 170.686zM561.644 275.882c-46.52 3.614-66.042 26.656-102.504 48.808-20.060-105.178-44.562-206.018-117.138-258.688-22.404 158.968 32.894 278.364 58.57 405.114-43.786 73.706 5.27 222.034 97.62 185.474 113.626-44.948-98.4-274.008 43.932-302.616 148.62-29.868 209.288 257.858 117.142 351.424-133.158 135.106-387.598 3.080-356.31-190.356 7.614-47.292 56.472-61.638 19.524-126.902-85.22 18.892-110.65 86.102-107.376 175.712 5.268 146.674 131.784 249.364 258.686 263.566 160.484 17.964 311.106-58.908 331.906-209.876 23.41-170.388-72.45-354.928-244.052-341.66z" />
<glyph unicode="&#xe63f;" glyph-name="untitled84" d="M995.828-35.826c-37.566-37.564-98.45-37.564-136.016 0l-169.726 169.726c-69.776-44.764-152.26-71.434-241.318-71.434-247.83 0-448.768 200.908-448.768 448.768s200.938 448.766 448.768 448.766c247.862 0 448.768-200.904 448.768-448.766 0-89.028-26.704-171.542-71.436-241.352l169.728-169.726c37.562-37.564 37.562-98.418 0-135.982zM448.768 831.782c-177.022 0-320.548-143.494-320.548-320.546s143.526-320.548 320.548-320.548c177.052 0 320.548 143.496 320.548 320.548s-143.496 320.546-320.548 320.546z" />
<glyph unicode="&#xe640;" glyph-name="untitled85" d="M0 21.334c0-47.146 38.186-85.334 85.334-85.334h853.334c47.146 0 85.334 38.186 85.334 85.334l-0.002 853.332c0 47.146-38.186 85.334-85.334 85.334h-853.332c-47.148 0-85.334-38.186-85.334-85.334v-853.332zM533.334 64v341.334h-85.334v128h85.334c0 219.946 9.364 234.666 277.332 234.666v-128c-141.226 0-128-7.894-128-106.666h128v-128h-128v-341.334h-149.332z" />
<glyph unicode="&#xe641;" glyph-name="untitled86" d="M0 21.334c0-47.146 38.186-85.334 85.334-85.334h853.334c47.146 0 85.334 38.186 85.334 85.334l-0.002 853.332c0 47.146-38.186 85.334-85.334 85.334h-853.332c-47.148 0-85.334-38.186-85.334-85.334v-853.332zM661.334 426.666h-213.334v-64c0-23.466 19.2-42.666 42.666-42.666h170.666c47.146 0 85.334-38.186 85.334-85.334s-38.186-85.334-85.334-85.334l-213.332 0.002c-94.294 0-170.666 76.374-170.666 170.666v362.666c0 47.146 38.186 85.334 85.334 85.334s85.334-38.186 85.334-85.334v-85.334h213.334c47.146 0 85.334-38.186 85.334-85.334s-38.19-85.332-85.336-85.332z" />
<glyph unicode="&#xe642;" glyph-name="untitled87" d="M0 21.334c0-47.146 38.186-85.334 85.334-85.334h853.334c47.146 0 85.334 38.186 85.334 85.334l-0.002 853.332c0 47.146-38.186 85.334-85.334 85.334h-853.332c-47.148 0-85.334-38.186-85.334-85.334v-853.332zM832 202.666c0-29.44-23.894-53.334-53.334-53.334s-53.332 23.894-53.332 53.334c0 241.494-195.862 437.334-437.334 437.334-29.44 0-53.334 23.894-53.334 53.334s23.894 53.334 53.334 53.334c158.294 0 288.214-54.614 390.186-156.586 104.512-104.536 153.814-234.242 153.814-387.416zM640 202.666c0-29.44-23.894-53.334-53.334-53.334s-53.332 23.894-53.332 53.334c0 135.468-109.868 245.334-245.334 245.334-29.44 0-53.334 23.894-53.334 53.334s23.894 53.334 53.334 53.334c194.346-0.002 352-157.676 352-352.002zM234.666 245.334c0 53.12 42.88 96 96 96s96-42.88 96-96-42.88-96-96-96-96 42.88-96 96z" />
<glyph unicode="&#xe643;" glyph-name="untitled88" d="M938.858 576h63.786c5.546 0 11.094 2.134 15.36 6.186 8.32 8.32 8.32 21.974 0 30.294-5.782 5.546-77.226 91.52-77.226 91.52s71.466 85.974 77.226 91.52c8.32 8.32 8.32 21.974 0 30.294-4.266 4.052-9.812 6.186-15.358 6.186h-102.634c-46.698 76.8-131.414 128-227.84 128-147.2 0-266.666-119.466-266.666-266.666 0-88.32-71.68-160-160-160h-203.074c-23.488 0-42.666-19.2-42.666-42.666l0.214-5.76c18.986-185.6 148.886-339.2 320.214-396.586v-98.986c0-29.44 23.894-53.334 53.334-53.334s53.334 23.894 53.334 53.334v76.586c14.080-1.28 28.374-1.92 42.666-1.92s28.586 0.64 42.666 1.92v-76.586c0-29.44 23.894-53.334 53.334-53.334s53.334 23.894 53.334 53.334v98.986c186.026 62.314 320 238.080 320 445.014l-0.004 42.664zM682.858 778.666c0 29.44 23.894 53.334 53.334 53.334s53.334-23.894 53.334-53.334-23.894-53.334-53.334-53.334-53.334 23.894-53.334 53.334zM517.312 463.786c30.080-65.302 18.326-145.088-35.414-198.826-52.906-53.12-131.414-65.302-196.054-36.48l-6.826 3.626c-13.654 7.254-22.806 21.546-22.806 37.974 0 12.586 5.334 23.894 13.866 31.786 4.246 3.84 176.426 176.214 176.426 176.214 16.854 16.854 44.16 16.854 60.8 0 2.56-2.56 4.906-5.334 6.634-8.32l3.374-5.974z" />
<glyph unicode="&#xe644;" glyph-name="untitled89" d="M632.576 661.376c46.080-10.666 82.752-49.92 93.418-92.8 3.648-20.054 21.12-35.2 42.048-35.2 23.466 0 42.666 19.2 42.666 42.666 0 30.72-25.814 77.44-61.014 112.426-34.56 34.134-75.734 58.24-109.654 58.24-23.466 0-42.666-19.84-42.666-43.306 0.002-20.884 15.148-38.4 35.202-42.026zM46.122 102.016c-33.066-33.046-33.066-86.826 0-119.872 33.066-33.088 86.826-33.088 119.68 0l245.098 244.906c57.194-35.67 124.586-56.342 197.12-56.342 206.294 0 373.334 167.040 373.334 373.334s-167.040 373.334-373.334 373.334-373.334-167.040-373.334-373.334c0-72.32 20.714-139.946 56.342-197.12l-244.906-244.906zM341.376 544.042c0 147.2 119.488 266.666 266.666 266.666 147.2 0 266.666-119.466 266.666-266.666s-119.466-266.666-266.666-266.666c-147.178 0.022-266.666 119.488-266.666 266.666z" />
<glyph unicode="&#xe645;" glyph-name="untitled90" d="M0 71.68c119.040-73.6 257.302-114.346 393.814-114.346 60.138 0 119.040 6.186 176 21.334 39.254 11.094 70.186 43.286 70.186 85.334 0 25.366-11.094 48.426-28.8 64l7.466-0.002c47.146 0 85.334 38.186 85.334 85.334s-38.186 85.334-85.334 85.334h42.666c47.146 0 85.334 38.186 85.334 85.334s-38.186 85.334-85.334 85.334h277.334c47.146 0 85.334 38.186 85.334 85.334s-38.186 85.334-85.334 85.334l-486.634-0.004c-23.658 0-42.666 19.2-42.666 42.666 0 4.032 0.64 7.894 1.706 11.52l49.066 120.746c5.782 11.522 9.196 24.534 9.196 38.402 0 47.146-38.186 85.334-85.334 85.334-35.414 0-65.92-21.76-78.934-52.48-71.466-138.454-159.146-249.388-305.066-327.042v-487.466z" />
<glyph unicode="&#xe646;" glyph-name="untitled91" d="M888.342 960c73.578-119.040 114.324-257.302 114.324-393.814 0-60.16-6.186-119.040-21.334-176-11.092-39.252-43.284-70.186-85.332-70.186-25.366 0-48.426 11.094-64 28.8v-7.466c0-47.146-38.186-85.334-85.334-85.334s-85.334 38.186-85.334 85.334v-42.666c0-47.146-38.186-85.334-85.334-85.334s-85.334 38.186-85.334 85.334v-277.334c0-47.146-38.186-85.334-85.334-85.334s-85.334 38.186-85.334 85.334l0.004 486.634c0 23.658-19.2 42.666-42.666 42.666-4.054 0-7.894-0.64-11.734-1.706l-120.534-49.066c-11.52-5.782-24.532-9.196-38.4-9.196-47.146 0-85.334 38.186-85.334 85.334 0 35.414 21.76 65.92 52.48 78.934 138.454 71.466 249.388 159.146 327.042 305.066h487.488z" />
<glyph unicode="&#xe647;" glyph-name="untitled92" d="M742.996 657.664c-33.28 33.322-87.38 33.322-120.66 0l-110.336-110.336-110.336 110.336c-33.28 33.322-87.38 33.322-120.662 0-33.324-33.322-33.324-87.34 0-120.66l110.294-110.336-110.294-110.336c-33.324-33.322-33.324-87.338 0-120.662 16.64-16.682 38.486-25.004 60.332-25.004s43.69 8.32 60.332 25.004l110.336 110.336 110.336-110.336c16.64-16.682 38.486-25.004 60.332-25.004s43.692 8.32 60.332 25.004c33.322 33.322 33.322 87.338 0 120.662l-110.294 110.336 110.294 110.336c33.322 33.322 33.322 87.338 0 120.66z" />
<glyph unicode="&#xe648;" glyph-name="untitled93" d="M768 512h-170.668v170.668c0 47.104-38.23 85.332-85.332 85.332s-85.332-38.228-85.332-85.332l3.028-170.668h-173.696c-47.104 0-85.332-38.228-85.332-85.334s38.23-85.332 85.332-85.332l173.696 3.028-3.028-173.696c0-47.104 38.228-85.332 85.332-85.332s85.332 38.23 85.332 85.332v173.696l170.668-3.028c47.104 0 85.332 38.23 85.332 85.332s-38.23 85.334-85.332 85.334z" />
<glyph unicode="&#xe649;" glyph-name="untitled94" d="M768 469.334h-512c-47.104 0-85.332-38.23-85.332-85.334s38.23-85.332 85.332-85.332h512c47.104 0 85.332 38.23 85.332 85.332s-38.23 85.334-85.332 85.334z" />
<glyph unicode="&#xe64a;" glyph-name="untitled95" d="M451.668 657.664c-33.322-33.236-33.322-87.34 0-120.66l67.668-67.67h-309.076c-47.104 0-85.332-38.188-85.332-85.334 0-47.104 38.23-85.332 85.332-85.332h309.076l-67.668-67.668c-33.322-33.236-33.322-87.338 0-120.662 16.682-16.682 38.486-25.004 60.332-25.004s43.648 8.32 60.332 25.004l273.664 273.664-273.664 273.664c-33.322 33.322-87.338 33.322-120.662 0z" />
<glyph unicode="&#xe64b;" glyph-name="untitled96" d="M810.668 213.334h-597.332c-47.062 0-85.332-38.272-85.332-85.332s38.272-85.332 85.332-85.332h597.332c47.062 0 85.332 38.272 85.332 85.332s-38.272 85.332-85.332 85.332zM810.668 512h-597.332c-47.062 0-85.332-38.272-85.332-85.334s38.272-85.332 85.332-85.332h597.332c47.062 0 85.332 38.272 85.332 85.332s-38.272 85.334-85.332 85.334zM810.668 810.666h-597.332c-47.062 0-85.332-38.272-85.332-85.334s38.272-85.332 85.332-85.332h597.332c47.062 0 85.332 38.272 85.332 85.332s-38.272 85.334-85.332 85.334z" />
<glyph unicode="&#xe64c;" glyph-name="untitled97" d="M785.664 484.010c-33.322 33.322-87.338 33.322-120.662 0l-67.668-67.67v308.992c0 47.146-38.23 85.332-85.332 85.332-47.146 0-85.332-38.188-85.332-85.332v-308.992l-67.668 67.67c-33.322 33.324-87.338 33.324-120.662 0s-33.324-87.34 0-120.662l273.664-273.664 273.664 273.664c33.322 33.322 33.322 87.296 0 120.662z" />
<glyph unicode="&#xe64d;" glyph-name="untitled98" d="M682.668 128c-34.22 0-66.346 13.312-90.538 37.504l-80.128 80.172-80.17-80.172c-48.342-48.342-132.652-48.342-181.034 0-24.15 24.15-37.46 56.32-37.46 90.496s13.312 66.346 37.504 90.538l80.128 80.128-80.128 80.172c-24.192 24.15-37.504 56.32-37.504 90.496s13.312 66.346 37.504 90.538c48.342 48.298 132.652 48.342 181.036-0.044l80.128-80.17 80.172 80.17c48.342 48.342 132.65 48.342 181.034 0 24.15-24.15 37.462-56.32 37.462-90.496s-13.312-66.346-37.504-90.538l-80.128-80.128 80.128-80.172c24.192-24.15 37.504-56.32 37.504-90.496s-13.312-66.346-37.504-90.538c-24.15-24.15-56.278-37.462-90.496-37.462zM512 366.336l140.5-140.5c16.128-16.128 44.246-16.086 60.332 0 8.064 8.064 12.5 18.73 12.5 30.164s-4.438 22.1-12.5 30.164l-140.458 140.5 140.46 140.5c8.064 8.064 12.5 18.774 12.5 30.166s-4.438 22.1-12.5 30.166c-16.128 16.17-44.246 16.128-60.332 0.042l-140.5-140.544-140.5 140.502c-16.128 16.128-44.246 16.084-60.332 0-8.064-8.064-12.5-18.774-12.5-30.166s4.438-22.1 12.5-30.166l140.46-140.5-140.46-140.5c-8.064-8.064-12.5-18.73-12.5-30.164s4.438-22.1 12.5-30.164c16.128-16.172 44.246-16.128 60.332-0.044l140.5 140.544z" />
<glyph unicode="&#xe64e;" glyph-name="untitled99" d="M512 42.666c-70.572 0-128 57.428-128 128l2.262 130.26-129.492-2.26c-71.338 0-128.768 57.428-128.768 128s57.43 128 128 128l130.26 2.304-2.262 124.928c0 71.338 57.43 128.768 128 128.768s128-57.428 128-128l2.346-125.696 126.422-2.304c69.802 0 127.232-57.43 127.232-128s-57.428-128-128-128l-125.654 2.26-2.346-131.028c0-69.802-57.428-127.232-128-127.232zM469.334 384v-214.1c0-22.74 19.156-41.9 42.666-41.9s42.668 19.158 42.668 42.668v213.332h214.1c22.74 0 41.9 19.158 41.9 42.668s-19.158 42.668-42.668 42.668h-213.332v213.334c0 24.278-19.158 42.666-42.668 42.666s-42.668-19.156-42.668-42.666v-213.334h-213.332c-24.278 0-42.668-19.156-42.668-42.668s19.158-42.668 42.668-42.668h213.332z" />
<glyph unicode="&#xe64f;" glyph-name="untitled100" d="M768 256h-512c-70.57 0-128 57.428-128 128s57.43 128 128 128h512c70.572 0 128-57.428 128-128s-57.428-128-128-128zM256 426.666c-23.51 0-42.668-19.158-42.668-42.668s19.158-42.668 42.668-42.668h512c23.51 0 42.668 19.158 42.668 42.668s-19.158 42.668-42.668 42.668h-512z" />
<glyph unicode="&#xe650;" glyph-name="untitled101" d="M256 256h-85.332c-47.104 0-85.332-38.23-85.332-85.332v-85.332c0-47.104 38.228-85.332 85.332-85.332h85.332c47.104 0 85.332 38.23 85.332 85.332v85.332c0 47.104-38.228 85.332-85.332 85.332zM256 85.334h-85.332v85.332h85.332v-85.332zM256 554.666h-85.332c-47.104 0-85.332-38.23-85.332-85.334v-85.334c0-47.104 38.228-85.332 85.332-85.332h85.332c47.104 0 85.332 38.23 85.332 85.332v85.334c0 47.104-38.228 85.334-85.332 85.334zM256 384h-85.332v85.334h85.332v-85.334zM256 853.334h-85.332c-47.104 0-85.332-38.23-85.332-85.332v-85.332c0-47.104 38.228-85.334 85.332-85.334h85.332c47.104 0 85.332 38.23 85.332 85.334v85.332c0 47.104-38.228 85.332-85.332 85.332zM256 682.666h-85.332v85.332h85.332v-85.332zM554.668 256h-85.332c-47.104 0-85.332-38.23-85.332-85.332v-85.332c0-47.104 38.228-85.332 85.332-85.332h85.332c47.104 0 85.332 38.23 85.332 85.332v85.332c0 47.104-38.23 85.332-85.332 85.332zM554.668 85.334h-85.332v85.332h85.332v-85.332zM554.668 554.666h-85.332c-47.104 0-85.332-38.23-85.332-85.334v-85.334c0-47.104 38.228-85.332 85.332-85.332h85.332c47.104 0 85.332 38.23 85.332 85.332v85.334c0 47.104-38.23 85.334-85.332 85.334zM554.668 384h-85.332v85.334h85.332v-85.334zM554.668 853.334h-85.332c-47.104 0-85.332-38.23-85.332-85.332v-85.332c0-47.104 38.228-85.334 85.332-85.334h85.332c47.104 0 85.332 38.23 85.332 85.334v85.332c0 47.104-38.23 85.332-85.332 85.332zM554.668 682.666h-85.332v85.332h85.332v-85.332zM853.332 256h-85.332c-47.104 0-85.332-38.23-85.332-85.332v-85.332c0-47.104 38.23-85.332 85.332-85.332h85.332c47.104 0 85.332 38.23 85.332 85.332v85.332c0 47.104-38.23 85.332-85.332 85.332zM853.332 85.334h-85.332v85.332h85.332v-85.332zM853.332 554.666h-85.332c-47.104 0-85.332-38.23-85.332-85.334v-85.334c0-47.104 38.23-85.332 85.332-85.332h85.332c47.104 0 85.332 38.23 85.332 85.332v85.334c0 47.104-38.23 85.334-85.332 85.334zM853.332 384h-85.332v85.334h85.332v-85.334zM853.332 853.334h-85.332c-47.104 0-85.332-38.23-85.332-85.332v-85.332c0-47.104 38.23-85.334 85.332-85.334h85.332c47.104 0 85.332 38.23 85.332 85.334v85.332c0 47.104-38.23 85.332-85.332 85.332zM853.332 682.666h-85.332v85.332h85.332v-85.332z" />
<glyph unicode="&#xe651;" glyph-name="untitled102" d="M810.668 170.666c23.466 0 42.668-19.2 42.668-42.668s-19.2-42.668-42.668-42.668h-597.332c-23.466 0-42.668 19.2-42.668 42.668s19.2 42.668 42.668 42.668h597.332zM810.668 256h-597.332c-70.57 0-128-57.428-128-128s57.43-128 128-128h597.332c70.572 0 128 57.428 128 128s-57.428 128-128 128zM810.668 469.334c23.466 0 42.668-19.2 42.668-42.668s-19.2-42.668-42.668-42.668h-597.332c-23.466 0-42.668 19.2-42.668 42.668s19.2 42.668 42.668 42.668h597.332zM810.668 554.666h-597.332c-70.57 0-128-57.43-128-128s57.43-128 128-128h597.332c70.572 0 128 57.428 128 128s-57.428 128-128 128zM810.668 768c23.466 0 42.668-19.2 42.668-42.666s-19.2-42.666-42.668-42.666h-597.332c-23.466 0-42.668 19.2-42.668 42.666s19.2 42.668 42.668 42.668h597.332zM810.668 853.334h-597.332c-70.57 0-128-57.428-128-128s57.43-128 128-128h597.332c70.572 0 128 57.43 128 128s-57.428 128-128 128z" />
<glyph unicode="&#xe652;" glyph-name="untitled103" d="M597.332 597.334c70.656 0 128-57.344 128-128s-57.344-128-128-128-128 57.344-128 128 57.344 128 128 128zM597.332 640c-94.122 0-170.668-76.544-170.668-170.666s76.544-170.668 170.668-170.668 170.668 76.544 170.668 170.668-76.544 170.668-170.668 170.668zM178.986 184.576c0-73.686 59.904-133.59 133.59-133.59 32.256 0 64.128 11.818 89.772 33.408l102.272 101.802c29.226-9.684 60.246-15.53 92.716-15.53 164.692 0 298.666 134.016 298.666 298.668s-133.972 298.666-298.666 298.666c-164.652 0-298.666-134.016-298.666-298.666 0-32.47 5.802-63.404 15.532-92.716l-95.788-97.408c-25.43-25.174-39.424-58.794-39.424-94.634zM454.572 256.854l-107.178-107.136c-9.514-7.98-21.504-13.356-34.816-13.356-26.624 0-48.256 21.59-48.256 48.256 0 13.27 5.418 25.344 14.166 34.004l106.324 107.99c18.56-27.52 42.24-51.2 69.76-69.76zM597.332 256c-117.632 0-213.332 95.702-213.332 213.334s95.702 213.332 213.332 213.332 213.332-95.702 213.332-213.332-95.702-213.334-213.332-213.334z" />
<glyph unicode="&#xe653;" glyph-name="untitled104" d="M426.624 682.666v-384h-192l277.334-277.076 277.334 277.076h-192v386.004c0 46.080-38.144 83.328-85.332 83.328-47.232 0-85.332-39.252-85.332-85.332z" />
<glyph unicode="&#xe654;" glyph-name="untitled105" d="M213.332 341.334h384v-192l277.076 277.334-277.076 277.334v-192h-386.004c-46.080 0-83.328-38.144-83.328-85.334s39.254-85.332 85.332-85.332z" />
<glyph unicode="&#xe655;" glyph-name="untitled106" d="M33.836 35.498l60.33-60.332 187.094 187.092-58.752 61.908-188.672-188.672zM602.668 896c-209.068 0-378.666-169.558-378.666-378.668 0-81.876 26.324-157.44 70.486-219.436l71.252-75.092c64.896-52.352 147.072-84.182 236.928-84.182 209.152 0 378.668 169.558 378.668 378.668s-169.514 378.708-378.666 378.708zM602.668 224c-161.75 0-293.334 131.584-293.334 293.334s131.584 293.334 293.334 293.334 293.332-131.584 293.332-293.334-131.584-293.334-293.334-293.334z" />
<glyph unicode="&#xe656;" glyph-name="untitled107" d="M496 16c-229.76 0-416 186.24-416 416s186.24 416 416 416 416-186.24 416-416-186.24-416-416-416zM702.016 449.984c0 17.664-14.336 32-32 32h-128v128c0 17.664-14.304 32-32 32h-32c-17.696 0-32-14.336-32-32v-128h-128c-17.696 0-32-14.336-32-32v-32c0-17.696 14.304-32 32-32h128v-128c0-17.696 14.304-32 32-32h32c17.696 0 32 14.304 32 32v128h128c17.664 0 32 14.304 32 32v32z" />
<glyph unicode="&#xe657;" glyph-name="untitled108" d="M512 32c-229.76 0-416 186.24-416 416s186.24 416 416 416 416-186.24 416-416-186.24-416-416-416zM512 768c-176.704 0-320-143.264-320-320 0-176.704 143.296-320 320-320 176.736 0 320 143.296 320 320 0 176.736-143.264 320-320 320zM639.616 416h-96v-96c0-17.696-14.336-32-32-32-17.696 0-32 14.304-32 32v96h-96c-17.696 0-32 14.336-32 32s14.304 32 32 32h96v96c0 17.696 14.304 32 32 32 17.664 0 32-14.304 32-32v-96h96c17.664 0 32-14.336 32-32s-14.336-32-32-32z" />
<glyph unicode="&#xe658;" glyph-name="untitled109" d="M496 848c-229.76 0-416-186.24-416-416s186.24-416 416-416c229.76 0 416 186.24 416 416s-186.24 416-416 416zM704 420c0-17.696-14.336-32-32-32h-352c-17.696 0-32 14.304-32 32v32c0 17.664 14.304 32 32 32h352c17.664 0 32-14.336 32-32v-32z" />
<glyph unicode="&#xe659;" glyph-name="untitled110" d="M512 864c-229.76 0-416-186.24-416-416s186.24-416 416-416 416 186.24 416 416-186.24 416-416 416zM512 128c-176.704 0-320 143.296-320 320 0 176.736 143.296 320 320 320 176.736 0 320-143.264 320-320 0-176.704-143.264-320-320-320zM631.616 480h-256c-17.696 0-32-14.336-32-32 0-17.696 14.304-32 32-32h256c17.696 0 32 14.304 32 32 0 17.664-14.304 32-32 32z" />
<glyph unicode="&#xe65a;" glyph-name="untitled111" d="M626.784 447.968l195.072-195.072c12.672-12.672 12.672-33.248 0-45.92l-68.832-68.832c-12.672-12.672-33.216-12.672-45.92 0l-195.104 195.072-195.104-195.072c-12.672-12.672-33.216-12.672-45.888 0l-68.864 68.832c-12.672 12.672-12.672 33.216 0 45.92l195.104 195.072-195.104 195.104c-12.672 12.672-12.672 33.248 0 45.92l68.896 68.832c12.672 12.672 33.216 12.672 45.888 0l195.072-195.104 195.104 195.104c12.672 12.672 33.216 12.672 45.92 0l68.832-68.864c12.672-12.672 12.672-33.216 0-45.92l-195.072-195.072z" />
<glyph unicode="&#xe65b;" glyph-name="untitled112" d="M932.992 1.248l-22.688-22.688c-25.12-25.088-65.76-25.088-90.816 0l-181.632 181.568c-20.992 21.056-23.328 52.608-8.992 77.184l-99.328 99.264c-53.408-39.616-119.296-63.328-190.88-63.328-177.28 0-320.992 143.712-320.992 320.992 0 177.312 143.712 321.024 320.992 321.024 177.312 0 320.992-143.712 320.992-321.024 0-82.528-31.36-157.536-82.56-214.4l97.12-97.12c24.576 14.304 56.128 12 77.12-9.056l181.632-181.568c25.088-25.12 25.088-65.792 0.032-90.848zM578.816 595.552c0 132.96-107.808 240.736-240.768 240.736s-240.768-107.744-240.768-240.736 107.776-240.736 240.736-240.736 240.8 107.776 240.8 240.736z" />
<glyph unicode="&#xe65c;" glyph-name="untitled113" d="M256 576h128v128h-128v-128zM448 576h128v128h-128v-128zM640 704v-128h128v128h-128zM256 384h128v128h-128v-128zM448 384h128v128h-128v-128zM640 384h128v128h-128v-128zM256 192h128v128h-128v-128zM448 192h128v128h-128v-128zM640 192h128v128h-128v-128z" />
<glyph unicode="&#xe65d;" glyph-name="untitled114" d="M256 480h224v224h-224v-224zM544 704v-224h224v224h-224zM544 192h224v224h-224v-224zM256 192h224v224h-224v-224z" />
<glyph unicode="&#xe65e;" glyph-name="untitled115" d="M256 704v-128h512v128h-512zM256 384h512v128h-512v-128zM256 192h512v128h-512v-128z" />
<glyph unicode="&#xe65f;" glyph-name="untitled116" d="M848 96h-96c-8.832 0-16 7.168-16 16s7.168 16 16 16h80v80c0 8.832 7.168 16 16 16 8.8 0 16-7.168 16-16v-96c0-8.832-7.2-16-16-16zM848 288c-8.832 0-16 7.168-16 16v96c0 8.832 7.168 16 16 16 8.8 0 16-7.168 16-16v-96c0-8.832-7.2-16-16-16zM848 480c-8.832 0-16 7.168-16 16v96c0 8.832 7.168 16 16 16 8.8 0 16-7.168 16-16v-96c0-8.832-7.2-16-16-16zM848 672c-8.832 0-16 7.168-16 16v80h-80c-8.832 0-16 7.168-16 16s7.168 16 16 16h96c8.8 0 16-7.168 16-16v-96c0-8.832-7.2-16-16-16zM656 96h-96c-8.832 0-16 7.168-16 16s7.168 16 16 16h96c8.8 0 16-7.168 16-16s-7.2-16-16-16zM656 768h-96c-8.832 0-16 7.168-16 16s7.168 16 16 16h96c8.8 0 16-7.168 16-16s-7.2-16-16-16zM638.016 480c17.664 0 32-14.304 32-32 0-17.664-14.336-32-32-32h-96v-96c0-17.664-14.336-32-32-32-17.696 0-32 14.336-32 32v96h-96c-17.664 0-32 14.336-32 32 0 17.696 14.304 32 32 32h96v96c0 17.696 14.304 32 32 32 17.664 0 32-14.304 32-32v-96h96zM464 768h-96c-8.832 0-16 7.168-16 16s7.168 16 16 16h96c8.8 0 16-7.168 16-16s-7.2-16-16-16zM272 96h-96c-8.832 0-16 7.168-16 16v96c0 8.832 7.168 16 16 16s16-7.168 16-16v-80h80c8.832 0 16-7.168 16-16s-7.168-16-16-16zM272 768h-80v-80c0-8.832-7.168-16-16-16s-16 7.168-16 16v96c0 8.832 7.168 16 16 16h96c8.832 0 16-7.168 16-16s-7.168-16-16-16zM176 608c8.832 0 16-7.168 16-16v-96c0-8.832-7.168-16-16-16s-16 7.168-16 16v96c0 8.832 7.168 16 16 16zM176 416c8.832 0 16-7.168 16-16v-96c0-8.832-7.168-16-16-16s-16 7.168-16 16v96c0 8.832 7.168 16 16 16zM368 128h96c8.8 0 16-7.168 16-16s-7.2-16-16-16h-96c-8.832 0-16 7.168-16 16s7.168 16 16 16z" />
<glyph unicode="&#xe660;" glyph-name="untitled117" d="M272 800h-96c-8.832 0-16-7.168-16-16v-96c0-8.832 7.168-16 16-16s16 7.168 16 16v80h80c8.832 0 16 7.168 16 16s-7.168 16-16 16zM368 768h96c8.8 0 16 7.168 16 16s-7.2 16-16 16h-96c-8.832 0-16-7.168-16-16s7.168-16 16-16zM656 800h-96c-8.832 0-16-7.168-16-16s7.168-16 16-16h96c8.8 0 16 7.168 16 16s-7.2 16-16 16zM848 800h-96c-8.832 0-16-7.168-16-16s7.168-16 16-16h80v-80c0-8.832 7.168-16 16-16 8.8 0 16 7.168 16 16v96c0 8.832-7.2 16-16 16zM848 608c-8.832 0-16-7.168-16-16v-96c0-8.832 7.168-16 16-16 8.8 0 16 7.168 16 16v96c0 8.832-7.2 16-16 16zM848 416c-8.832 0-16-7.168-16-16v-96c0-8.832 7.168-16 16-16 8.8 0 16 7.168 16 16v96c0 8.832-7.2 16-16 16zM848 224c-8.832 0-16-7.168-16-16v-80h-80c-8.832 0-16-7.168-16-16s7.168-16 16-16h96c8.8 0 16 7.168 16 16v96c0 8.832-7.2 16-16 16zM656 128h-96c-8.832 0-16-7.168-16-16s7.168-16 16-16h96c8.8 0 16 7.168 16 16s-7.2 16-16 16zM464 128h-96c-8.832 0-16-7.168-16-16s7.168-16 16-16h96c8.8 0 16 7.168 16 16s-7.2 16-16 16zM272 128h-80v80c0 8.832-7.168 16-16 16s-16-7.168-16-16v-96c0-8.832 7.168-16 16-16h96c8.832 0 16 7.168 16 16s-7.168 16-16 16zM176 288c8.832 0 16 7.168 16 16v96c0 8.832-7.168 16-16 16s-16-7.168-16-16v-96c0-8.832 7.168-16 16-16zM176 480c8.832 0 16 7.168 16 16v96c0 8.832-7.168 16-16 16s-16-7.168-16-16v-96c0-8.832 7.168-16 16-16zM382.016 416h256c17.696 0 32 14.336 32 32 0 17.696-14.304 32-32 32h-256c-17.696 0-32-14.304-32-32 0-17.664 14.304-32 32-32z" />
<glyph unicode="&#xe661;" glyph-name="untitled118" d="M640 959.84c-212.064 0-384-171.936-384-384 0-64.832 16.224-125.856 44.64-179.456l-267.008-266.944 0.224-0.192c-20.864-20.512-33.856-48.928-33.856-80.512 0-62.368 50.56-112.928 112.928-112.928 31.52 0 59.968 12.992 80.48 33.888l-0.064 0.064 266.912 266.88c53.632-28.512 114.752-44.8 179.744-44.8 212.064 0 384 171.936 384 384s-171.936 384-384 384zM153.44 9.696c-10.304-10.688-24.576-17.376-40.512-17.376-31.2 0-56.48 25.248-56.48 56.448 0 15.936 6.72 30.176 17.376 40.512l-0.288 0.256 258.112 258.112c22.56-30.432 49.44-57.312 79.808-79.936l-258.016-258.016zM640 255.808c-176.704 0-320 143.328-320 320 0 176.704 143.296 320 320 320 176.672 0 320-143.296 320-320 0-176.672-143.328-320-320-320zM640 799.84c8.8 0 16-7.168 16-16s-7.2-16-16-16c-106.048 0-192-85.984-192-192 0-8.832-7.168-16-16-16s-16 7.168-16 16c0 123.712 100.256 224 224 224z" />
<glyph unicode="&#xe662;" glyph-name="untitled119" d="M1024 46.546c0-93.092-93.092-93.092-93.092-93.092l-266.332 266.288c-69.028-50.176-153.74-80.106-245.668-80.106-231.378 0-418.908 187.532-418.908 418.908s187.532 418.91 418.908 418.91 418.908-187.532 418.908-418.91c0-91.926-29.976-176.64-80.15-245.712l266.332-266.286zM418.908 884.364c-179.944 0-325.818-145.874-325.818-325.818s145.872-325.818 325.818-325.818 325.818 145.872 325.818 325.818-145.872 325.818-325.818 325.818z" />
<glyph unicode="&#xe663;" glyph-name="untitled120" d="M734.668 299.418l-141.21 161.382 141.21 161.382c24.014 24.014 24.014 62.926 0 86.886s-62.924 23.962-86.886 0l-135.782-155.186-135.73 155.136c-24.012 24.012-62.926 24.012-86.886 0s-23.962-62.926 0-86.886l141.158-161.332-141.21-161.382c-23.962-24.014-23.962-62.822 0-86.784 24.012-24.014 62.926-24.014 86.886 0l135.782 155.086 135.73-155.086c24.014-24.014 62.924-24.014 86.886 0s24.014 62.77 0.052 86.784z" />
<glyph unicode="&#xe664;" glyph-name="untitled121" d="M819.2 870.4h-614.4c-56.32 0-102.4-46.080-102.4-102.4v-614.4c0-56.32 46.080-102.4 102.4-102.4h614.4c56.32 0 102.4 46.080 102.4 102.4v614.4c0 56.32-46.080 102.4-102.4 102.4zM768 409.6h-512v102.4h512v-102.4z" />
<glyph unicode="&#xe665;" glyph-name="untitled122" d="M819.2 870.4h-614.4c-56.32 0-102.4-46.080-102.4-102.4v-614.4c0-56.32 46.080-102.4 102.4-102.4h614.4c56.32 0 102.4 46.080 102.4 102.4v614.4c0 56.32-46.080 102.4-102.4 102.4zM768 409.6h-204.8v-204.8h-102.4v204.8h-204.8v102.4h204.8v204.8h102.4v-204.8h204.8v-102.4z" />
<glyph unicode="&#xe666;" glyph-name="untitled123" d="M378.88 768h-92.16c-56.32 0-81.92-25.6-81.92-81.92v-92.16c0-56.32 25.6-81.92 81.92-81.92h92.16c56.32 0 81.92 25.6 81.92 81.92v92.16c0 56.32-25.6 81.92-81.92 81.92zM737.28 768h-92.16c-56.32 0-81.92-25.6-81.92-81.92v-92.16c0-56.32 25.6-81.92 81.92-81.92h92.16c56.32 0 81.92 25.6 81.92 81.92v92.16c0 56.32-25.6 81.92-81.92 81.92zM378.88 409.6h-92.16c-56.32 0-81.92-25.6-81.92-81.92v-92.16c0-56.32 25.6-81.92 81.92-81.92h92.16c56.32 0 81.92 25.6 81.92 81.92v92.16c0 56.32-25.6 81.92-81.92 81.92zM737.28 409.6h-92.16c-56.32 0-81.92-25.6-81.92-81.92v-92.16c0-56.32 25.6-81.92 81.92-81.92h92.16c56.32 0 81.92 25.6 81.92 81.92v92.16c0 56.32-25.6 81.92-81.92 81.92z" />
<glyph unicode="&#xe667;" glyph-name="untitled124" d="M819.2 512h-614.4c-28.262 0-51.2-22.938-51.2-51.2s22.938-51.2 51.2-51.2h614.4c28.314 0 51.2 22.938 51.2 51.2s-22.886 51.2-51.2 51.2zM204.8 614.4h614.4c28.314 0 51.2 22.938 51.2 51.2s-22.886 51.2-51.2 51.2h-614.4c-28.262 0-51.2-22.938-51.2-51.2s22.938-51.2 51.2-51.2zM819.2 307.2h-614.4c-28.262 0-51.2-22.886-51.2-51.2s22.938-51.2 51.2-51.2h614.4c28.314 0 51.2 22.886 51.2 51.2s-22.886 51.2-51.2 51.2z" />
<glyph unicode="&#xe668;" glyph-name="untitled125" d="M1013.76 716.8v61.44c0 22.63-18.38 40.96-40.96 40.96h-921.6c-22.63 0-40.96-18.33-40.96-40.96v-61.44h102.4v-102.4h-102.4v-102.4h102.4v-102.4h-102.4v-102.4h102.4v-102.4h-102.4v-61.44c0-22.63 18.33-40.96 40.96-40.96h921.6c22.578 0 40.96 18.33 40.96 40.96v61.44h-102.4v102.4h102.4v102.4h-102.4v102.4h102.4v102.4h-102.4v102.4h102.4zM399.36 307.2v307.2l256-153.6-256-153.6z" />
<glyph unicode="&#xe669;" glyph-name="untitled126" d="M901.12 460.032l-195.994 0.052 0.052 359.218h-386.662v-359.27l-195.634 0.052 389.12-388.302z" />
<glyph unicode="&#xe66a;" glyph-name="untitled127" d="M512.768 849.92v-195.994l-359.27 0.052v-386.662h359.27v-195.634l388.25 389.12z" />
<glyph unicode="&#xe66b;" glyph-name="untitled128" d="M849.92 460.032l-195.994 0.052 0.052 359.218h-284.262v-359.27l-195.634 0.052 337.92-388.302z" />
<glyph unicode="&#xe66c;" glyph-name="untitled129" d="M512.768 798.72v-195.994l-359.27 0.052v-284.262h359.27v-195.634l388.25 337.972z" />
<glyph unicode="&#xe66d;" glyph-name="untitled130" d="M747.52 665.548l-471.040 0.052 235.52-409.6z" />
<glyph unicode="&#xe66e;" glyph-name="untitled131" d="M307.25 696.32l-0.050-471.040 409.6 235.52z" />
<glyph unicode="&#xe66f;" glyph-name="untitled132" d="M792.73 534.374c-20.838-21.402-240.384-230.554-240.384-230.554-11.162-11.418-25.754-17.1-40.346-17.1-14.644 0-29.236 5.682-40.346 17.1 0 0-219.546 209.152-240.436 230.554-20.838 21.402-22.272 59.852 0 82.74 22.324 22.834 53.402 24.626 80.69 0l200.090-191.898 200.038 191.846c27.342 24.628 58.47 22.836 80.692 0 22.322-22.834 20.942-61.338 0-82.688z" />
<glyph unicode="&#xe670;" glyph-name="untitled133" d="M438.426 741.582c21.402-20.89 230.502-240.436 230.502-240.436 11.47-11.162 17.152-25.754 17.152-40.346s-5.682-29.184-17.152-40.346c0 0-209.1-219.546-230.502-240.384-21.402-20.89-59.854-22.322-82.738 0-22.834 22.272-24.628 53.35 0 80.64l191.898 200.090-191.846 200.090c-24.628 27.34-22.834 58.418 0 80.69s61.338 20.89 82.688 0z" />
<glyph unicode="&#xe671;" glyph-name="untitled134" d="M132.198 686.028c-13.876 13.722-36.302 13.722-50.126 0-13.824-13.67-13.824-35.892 0-49.614l404.89-400.896c13.876-13.722 36.25-13.722 50.126 0l404.89 400.896c13.824 13.722 13.876 35.89 0 49.612s-36.352 13.722-50.126 0.052l-379.854-365.62-379.802 365.568z" />
<glyph unicode="&#xe672;" glyph-name="untitled135" d="M286.704 80.998c-13.722-13.876-13.722-36.25 0-50.126s35.892-13.876 49.612 0l400.896 404.838c13.722 13.876 13.722 36.302 0 50.126l-400.896 404.89c-13.722 13.876-35.892 13.876-49.612 0s-13.722-36.25 0-50.126l365.568-379.802-365.568-379.802z" />
<glyph unicode="&#xe673;" glyph-name="untitled136" d="M768.922 204.8l-0.052 165.274-758.63-0.052v181.914h758.682l-0.052 164.864 244.89-256z" />
</font>
</defs>
</svg>
